X-Men (2000) Full 1080p Latino

1.395 vistas
1 estrella2 estrellas3 estrellas4 estrellas5 estrellas (Ninguna valoración todavía)
Cargando…

Información de X-Men (2000) Full 1080p Latino

Datos de la película

  • Calidad: Full 1080p
  • Audio: Español Latino AC3 5.1 BLURAY - Ingles DTS 5.1 BLURAY
  • Subtitulos: Español Latino PGS - Ingles PGS
  • Resolución: 1920X1080p
  • Formato: MKV
  • Codec: H.264
  • Encoder: Dracarys
  • Mediainfo: Clic para Mostrar Datos Ver
  • Format                                   : Matroska
    Format version                           : Version 4 / Version 2
    File size                                : 3.99 GiB
    Duration                                 : 1 h 44 min
    Overall bit rate                         : 5 474 kb/s
    Movie name                               : CinemanisHDD.com
    Encoded date                             : UTC 2018-03-21 00:39:41 / UTC 2018-03-17T08:22:19Z
    Writing application                      : mkvmerge v15.0.0 ('Duel with the Devil') 64-bit
    Writing library                          : libebml v1.3.5 + libmatroska v1.4.5 / Lavf57.7.2

    Video
    ID                                       : 1
    Format                                   : AVC
    Format/Info                              : Advanced Video Codec
    Format profile                           : High@L4.1
    Format settings                          : CABAC / 4 Ref Frames
    Format settings, CABAC                   : Yes
    Format settings, RefFrames               : 4 frames
    Codec ID                                 : V_MPEG4/ISO/AVC
    Duration                                 : 1 h 44 min
    Bit rate                                 : 3 408 kb/s
    Width                                    : 1 920 pixels
    Height                                   : 1 080 pixels
    Display aspect ratio                     : 16:9
    Frame rate mode                          : Constant
    Frame rate                               : 23.976 (24000/1001) FPS
    Color space                              : YUV
    Chroma subsampling                       : 4:2:0
    Bit depth                                : 8 bits
    Scan type                                : Progressive
    Bits/(Pixel*Frame)                       : 0.069
    Stream size                              : 2.48 GiB (62%)
    Title                                    : X-Men (2000) Full 1080p Latino
    Writing library                          : x264 core 148 r2708 86b7198
    Encoding settings                        : cabac=1 / ref=4 / deblock=1:0:0 / analyse=0x3:0x133 / me=esa / subme=9 / psy=1 / psy_rd=1.00:0.00 / mixed_ref=1 / me_range=16 / chroma_me=1 / trellis=2 / 8x8dct=1 / cqm=0 / deadzone=21,11 / fast_pskip=1 / chroma_qp_offset=-2 / threads=34 / lookahead_threads=2 / sliced_threads=0 / nr=0 / decimate=1 / interlaced=0 / bluray_compat=0 / constrained_intra=0 / bframes=3 / b_pyramid=2 / b_adapt=2 / b_bias=0 / direct=3 / weightb=1 / open_gop=0 / weightp=2 / keyint=240 / keyint_min=24 / scenecut=40 / intra_refresh=0 / rc_lookahead=60 / rc=crf / mbtree=1 / crf=21.0 / qcomp=0.60 / qpmin=0 / qpmax=69 / qpstep=4 / vbv_maxrate=62500 / vbv_bufsize=78125 / crf_max=0.0 / nal_hrd=none / filler=0 / ip_ratio=1.40 / aq=1:1.00
    Language                                 : English
    Default                                  : Yes
    Forced                                   : No
    Color range                              : Limited
    Color primaries                          : BT.709
    Transfer characteristics                 : BT.709
    Matrix coefficients                      : BT.709
    Statistics Tags Issue                    : mkvmerge v15.0.0 ('Duel with the Devil') 64-bit 2018-03-21 00:39:41 / mkvmerge v15.0.0 ('Duel with the Devil') 64-bit 2018-03-21 00:39:41 / UTC 2018-03-17T08:22:19Z
    FromStats_BitRate                        : 3494399
    FromStats_Duration                       : 01:44:20.254000000
    FromStats_FrameCount                     : 150096
    FromStats_StreamSize                     : 2734478436

    Audio #1
    ID                                       : 2
    Format                                   : AC-3
    Format/Info                              : Audio Coding 3
    Format settings, Endianness              : Big
    Codec ID                                 : A_AC3
    Duration                                 : 1 h 44 min
    Bit rate mode                            : Constant
    Bit rate                                 : 448 kb/s
    Channel(s)                               : 6 channels
    Channel positions                        : Front: L C R, Side: L R, LFE
    Sampling rate                            : 48.0 kHz
    Frame rate                               : 31.250 FPS (1536 SPF)
    Bit depth                                : 16 bits
    Compression mode                         : Lossy
    Stream size                              : 334 MiB (8%)
    Language                                 : Spanish
    Service kind                             : Complete Main
    Default                                  : Yes
    Forced                                   : No
    Statistics Tags Issue                    : mkvmerge v15.0.0 ('Duel with the Devil') 64-bit 2018-03-21 00:39:41 / mkvmerge v15.0.0 ('Duel with the Devil') 64-bit 2018-03-21 00:39:41 / UTC 2018-03-17T08:22:19Z
    FromStats_BitRate                        : 448000
    FromStats_Duration                       : 01:44:20.320000000
    FromStats_FrameCount                     : 195635
    FromStats_StreamSize                     : 350577920

    Audio #2
    ID                                       : 3
    Format                                   : DTS
    Format/Info                              : Digital Theater Systems
    Mode                                     : 16
    Format settings, Endianness              : Big
    Codec ID                                 : A_DTS
    Duration                                 : 1 h 44 min
    Bit rate mode                            : Constant
    Bit rate                                 : 1 509 kb/s
    Channel(s)                               : 6 channels
    Channel positions                        : Front: L C R, Side: L R, LFE
    Sampling rate                            : 48.0 kHz
    Frame rate                               : 93.750 FPS (512 SPF)
    Bit depth                                : 24 bits
    Compression mode                         : Lossy
    Stream size                              : 1.10 GiB (28%)
    Language                                 : English
    Default                                  : No
    Forced                                   : No
    Statistics Tags Issue                    : mkvmerge v15.0.0 ('Duel with the Devil') 64-bit 2018-03-21 00:39:41 / mkvmerge v15.0.0 ('Duel with the Devil') 64-bit 2018-03-21 00:39:41 / UTC 2018-03-17T08:22:19Z
    FromStats_BitRate                        : 1509000
    FromStats_Duration                       : 01:44:20.288000000
    FromStats_FrameCount                     : 586902
    FromStats_StreamSize                     : 1180846824

    Text #1
    ID                                       : 4
    Format                                   : UTF-8
    Codec ID                                 : S_TEXT/UTF8
    Codec ID/Info                            : UTF-8 Plain Text
    Title                                    : SRT-Forzados
    Language                                 : Spanish
    Default                                  : Yes
    Forced                                   : Yes
    Statistics Tags Issue                    : mkvmerge v15.0.0 ('Duel with the Devil') 64-bit 2018-03-21 00:39:41 / mkvmerge v15.0.0 ('Duel with the Devil') 64-bit 2018-03-21 00:39:41 / UTC 2018-03-17T08:22:19Z
    FromStats_BitRate                        : 0
    FromStats_Duration                       : 00:22:00.777000000
    FromStats_FrameCount                     : 2
    FromStats_StreamSize                     : 36

    Text #2
    ID                                       : 5
    Format                                   : UTF-8
    Codec ID                                 : S_TEXT/UTF8
    Codec ID/Info                            : UTF-8 Plain Text
    Title                                    : SRT-Completos
    Language                                 : Spanish
    Default                                  : No
    Forced                                   : No
    Statistics Tags Issue                    : mkvmerge v15.0.0 ('Duel with the Devil') 64-bit 2018-03-21 00:39:41 / mkvmerge v15.0.0 ('Duel with the Devil') 64-bit 2018-03-21 00:39:41 / UTC 2018-03-17T08:22:19Z
    FromStats_BitRate                        : 34
    FromStats_Duration                       : 01:34:18.485000000
    FromStats_FrameCount                     : 726
    FromStats_StreamSize                     : 24093

    Text #3
    ID                                       : 6
    Format                                   : PGS
    Muxing mode                              : zlib
    Codec ID                                 : S_HDMV/PGS
    Codec ID/Info                            : Picture based subtitle format used on BDs/HD-DVDs
    Language                                 : English
    Default                                  : No
    Forced                                   : No
    Statistics Tags Issue                    : mkvmerge v15.0.0 ('Duel with the Devil') 64-bit 2018-03-21 00:39:41 / mkvmerge v15.0.0 ('Duel with the Devil') 64-bit 2018-03-21 00:39:41 / UTC 2018-03-17T08:22:19Z
    FromStats_BitRate                        : 21575
    FromStats_Duration                       : 01:34:19.529000000
    FromStats_FrameCount                     : 1256
    FromStats_StreamSize                     : 15263387

    Text #4
    ID                                       : 7
    Format                                   : PGS
    Muxing mode                              : zlib
    Codec ID                                 : S_HDMV/PGS
    Codec ID/Info                            : Picture based subtitle format used on BDs/HD-DVDs
    Language                                 : Spanish
    Default                                  : No
    Forced                                   : No
    Statistics Tags Issue                    : mkvmerge v15.0.0 ('Duel with the Devil') 64-bit 2018-03-21 00:39:41 / mkvmerge v15.0.0 ('Duel with the Devil') 64-bit 2018-03-21 00:39:41 / UTC 2018-03-17T08:22:19Z
    FromStats_BitRate                        : 31286
    FromStats_Duration                       : 01:34:18.486000000
    FromStats_FrameCount                     : 1451
    FromStats_StreamSize                     : 22129577

    Menu
    00:00:00.000                             : :Chapter 1
    00:01:19.288                             : :Chapter 2
    00:04:18.133                             : :Chapter 3
    00:05:56.022                             : :Chapter 4
    00:07:56.059                             : :Chapter 5
    00:09:23.688                             : :Chapter 6
    00:11:37.697                             : :Chapter 7
    00:14:38.503                             : :Chapter 8
    00:18:01.664                             : :Chapter 9
    00:20:49.248                             : :Chapter 10
    00:22:09.119                             : :Chapter 11
    00:23:58.646                             : :Chapter 12
    00:28:45.849                             : :Chapter 13
    00:29:55.168                             : :Chapter 14
    00:32:06.508                             : :Chapter 15
    00:33:37.682                             : :Chapter 16
    00:36:37.237                             : :Chapter 17
    00:38:25.178                             : :Chapter 18
    00:41:11.886                             : :Chapter 19
    00:44:13.860                             : :Chapter 20
    00:45:50.456                             : :Chapter 21
    00:48:41.544                             : :Chapter 22
    00:50:22.436                             : :Chapter 23
    00:52:05.831                             : :Chapter 24
    00:54:58.212                             : :Chapter 25
    00:58:11.154                             : :Chapter 26
    00:59:19.765                             : :Chapter 27
    01:01:54.961                             : :Chapter 28
    01:03:17.627                             : :Chapter 29
    01:06:02.375                             : :Chapter 30
    01:08:39.782                             : :Chapter 31
    01:12:21.379                             : :Chapter 32
    01:18:03.804                             : :Chapter 33
    01:20:53.223                             : :Chapter 34
    01:24:28.063                             : :Chapter 35
    01:26:58.422                             : :Chapter 36
    01:29:08.510                             : :Chapter 37
    01:31:47.210                             : :Chapter 38
    01:33:12.879                             : :Chapter 39
    01:35:12.123                             : :Chapter 40

  • Peso: 3.99 GiB

Sinopsis

En un futuro cercano, la humanidad comienza a ver aparecer una nueva raza; los mutantes. Dotados de extraños y variados poderes, están agrupados en dos bandos: los que abogan por la integración y el entendimiento con la humanidad, encabezados por el doctor Charles Xavier, y los que buscan el enfrentamiento con una raza que consideran inferior y que les odia, dirigidos por Magnus, alias Magneto, un peligroso mutante con extraordinarios poderes.

Ficha técnica

Video trailer de la película

Enlaces de descarga

Rip de Bluray

Descargar X-Men (2000) Full 1080p Latino




Aportes de DPeliculasHDmega la pass es:dpeliculashdmega.org Aportes de CinemaniaHD la pass es:cinemaniahdd.com

Películas relacionadas

  • Godzilla (2014) 1080p Latino

    2014
    Godzilla (2014) 1080p Latino

    0.0 2h 3m 2014

    Descargar Godzilla (2014) 1080p Latino, Mega, Google Drive, Torrent. Gareth Edwards dirige este "reboot",...

    Director: Jessica Clothier

    Género: Acción

    Actores: Yuki Morita

  • Godzilla (2014) Full 1080p Latino

    2014
    Godzilla (2014) Full 1080p Latino

    4.2 2h 3m 2014

    Descargar Godzilla (2014) Full 1080p Latino, Mega, Google Drive, Torrent. Gareth Edwards dirige este...

    Director: Jessica Clothier

    Género: Acción

    Actores: Yuki Morita

Comentarios 5
  • David - 26 septiembre, 2018

    Gracias por subir la película, se agradece un montón.

  • ocpgaiden - 22 marzo, 2018

    la mejor pagina de peliculas full hd-High@4.1-Audios-peso de las peliculas-Googledrive, etc

  • moises - 21 marzo, 2018

    Hola,muy buenas películas últimamente, una pregunta pondrán esta saga en 4k? un saludo y muchas gracias.

    • Dracarys - 21 marzo, 2018

      no estan en 4K

  • Kokita - 21 marzo, 2018

    Que bien amigo tendre esta saga !!! bajando gracias!!!!