Venom (2018) Full 1080p Latino ( PLACEBO)

7.503 vistas
1 estrella2 estrellas3 estrellas4 estrellas5 estrellas (12 votos, promedio: 3,92 de 5)
Cargando…

Información de Venom (2018) Full 1080p Latino ( PLACEBO)

Datos de la película

  • Calidad: Full 1080p
  • Audio: Español Latino AC3 5.1 BLURAY - Ingles DTS 5.1 BLURAY
  • Subtitulos: Español Latino PGS - Ingles PGS
  • Resolución: 1920x1080
  • Formato: MKV
  • Codec: H.264
  • Encoder: chesse92
  • Mediainfo: Clic para Mostrar Datos Ver
  • Venom (2018) Full 1080p Latino (PLACEBO).mkv
    Format                      : Matroska
    Format version              : Version 4
    File size                   : 5.37 GiB
    Duration                    : 1 h 52 min
    Overall bit rate mode       : Variable
    Overall bit rate            : 6 853 kb/s
    Movie name                  : CinemaniaHDD.net
    Encoded date                : UTC 2018-12-11 19:51:22 / UTC 2018-12-11T09:00:24Z
    Writing application         : mkvmerge v28.2.0 ('The Awakening') 64-bit
    Writing library             : libebml v1.3.6 + libmatroska v1.4.9 / Lavf57.7.2

    Video
    ID                          : 1
    Format                      : AVC
    Format/Info                 : Advanced Video Codec
    Format profile              : [email protected]
    Format settings             : CABAC / 4 Ref Frames
    Format settings, CABAC      : Yes
    Format settings, ReFrames   : 4 frames
    Codec ID                    : V_MPEG4/ISO/AVC
    Duration                    : 1 h 52 min
    Bit rate                    : 3 872 kb/s
    Width                       : 1 920 pixels
    Height                      : 1 080 pixels
    Display aspect ratio        : 16:9
    Frame rate mode             : Constant
    Frame rate                  : 23.976 (24000/1001) FPS
    Color space                 : YUV
    Chroma subsampling          : 4:2:0
    Bit depth                   : 8 bits
    Scan type                   : Progressive
    Bits/(Pixel*Frame)          : 0.078
    Stream size                 : 3.03 GiB (57%)
    Writing library             : x264 core 155 r2893 b00bcaf
    Encoding settings           : cabac=1 / ref=4 / deblock=1:0:0 / analyse=0x3:0x133 / me=tesa / subme=11 / psy=1 / psy_rd=1.00:0.00 / mixed_ref=1 / me_range=24 / chroma_me=1 / trellis=2 / 8x8dct=1 / cqm=0 / deadzone=21,11 / fast_pskip=0 / chroma_qp_offset=-2 / threads=34 / lookahead_threads=8 / sliced_threads=0 / nr=0 / decimate=1 / interlaced=0 / bluray_compat=0 / constrained_intra=0 / bframes=16 / b_pyramid=2 / b_adapt=2 / b_bias=0 / direct=3 / weightb=1 / open_gop=0 / weightp=2 / keyint=240 / keyint_min=24 / scenecut=40 / intra_refresh=0 / rc_lookahead=60 / rc=crf / mbtree=1 / crf=20.0 / qcomp=0.60 / qpmin=0 / qpmax=69 / qpstep=4 / vbv_maxrate=62500 / vbv_bufsize=78125 / crf_max=0.0 / nal_hrd=none / filler=0 / ip_ratio=1.40 / aq=1:1.00
    Default                     : Yes
    Forced                      : No
    Color range                 : Limited
    Color primaries             : BT.709
    Transfer characteristics    : BT.709
    Matrix coefficients         : BT.709

    Audio #1
    ID                          : 2
    Format                      : AC-3
    Format/Info                 : Audio Coding 3
    Commercial name             : Dolby Digital
    Codec ID                    : A_AC3
    Duration                    : 1 h 52 min
    Bit rate mode               : Constant
    Bit rate                    : 640 kb/s
    Channel(s)                  : 6 channels
    Channel layout              : L R C LFE Ls Rs
    Sampling rate               : 48.0 kHz
    Frame rate                  : 31.250 FPS (1536 SPF)
    Bit depth                   : 16 bits
    Compression mode            : Lossy
    Stream size                 : 513 MiB (9%)
    Language                    : Spanish
    Service kind                : Complete Main
    Default                     : Yes
    Forced                      : No

    Audio #2
    ID                          : 3
    Format                      : DTS XLL
    Format/Info                 : Digital Theater Systems
    Commercial name             : DTS-HD Master Audio
    Codec ID                    : A_DTS
    Duration                    : 1 h 52 min
    Bit rate mode               : Variable
    Bit rate                    : 2 322 kb/s
    Channel(s)                  : 6 channels
    Channel layout              : C L R Ls Rs LFE
    Sampling rate               : 48.0 kHz
    Frame rate                  : 93.750 FPS (512 SPF)
    Bit depth                   : 16 bits
    Compression mode            : Lossless
    Stream size                 : 1.82 GiB (34%)
    Title                       : Surround
    Language                    : English
    Default                     : No
    Forced                      : No

    Text #1
    ID                          : 4
    Format                      : PGS
    Muxing mode                 : zlib
    Codec ID                    : S_HDMV/PGS
    Codec ID/Info               : Picture based subtitle format used on BDs/HD-DVDs
    Duration                    : 1 h 50 min
    Bit rate                    : 27.7 kb/s
    Count of elements           : 2375
    Stream size                 : 21.9 MiB (0%)
    Default                     : Yes
    Forced                      : No

    Text #2
    ID                          : 5
    Format                      : UTF-8
    Codec ID                    : S_TEXT/UTF8
    Codec ID/Info               : UTF-8 Plain Text
    Duration                    : 1 h 49 min
    Bit rate                    : 47 b/s
    Count of elements           : 1185
    Stream size                 : 38.0 KiB (0%)
    Language                    : Spanish
    Default                     : No
    Forced                      : No

    Menu
    00:00:00.000                : :Capítulo 01
    00:02:35.197                : :Capítulo 02
    00:02:59.888                : :Capítulo 03
    00:03:34.089                : :Capítulo 04
    00:03:52.441                : :Capítulo 05
    00:06:01.736                : :Capítulo 06
    00:09:31.696                : :Capítulo 07
    00:11:06.332                : :Capítulo 08
    00:15:12.620                : :Capítulo 09
    00:15:29.470                : :Capítulo 10
    00:16:35.161                : :Capítulo 11
    00:26:24.208                : :Capítulo 12
    00:32:46.089                : :Capítulo 13
    00:35:32.797                : :Capítulo 14
    00:36:11.086                : :Capítulo 15
    00:36:32.941                : :Capítulo 16
    00:37:14.524                : :Capítulo 17
    00:46:51.684                : :Capítulo 18
    00:48:13.474                : :Capítulo 19
    00:53:37.715                : :Capítulo 20
    00:54:21.300                : :Capítulo 21
    00:54:29.975                : :Capítulo 22
    00:55:26.365                : :Capítulo 23
    00:56:19.126                : :Capítulo 24
    00:56:43.358                : :Capítulo 25
    00:57:01.668                : :Capítulo 26
    00:58:54.489                : :Capítulo 27
    00:59:04.124                : :Capítulo 28
    01:00:36.591                : :Capítulo 29
    01:05:59.664                : :Capítulo 30
    01:07:36.928                : :Capítulo 31
    01:17:38.028                : :Capítulo 32
    01:23:11.820                : :Capítulo 33
    01:23:25.083                : :Capítulo 34
    01:24:14.049                : :Capítulo 35
    01:27:21.278                : :Capítulo 36

  • Peso: 5.37 GiB

Sinopsis

Venom  Descargar por Torrent  Eddie Brock (Tom Hardy) es un consolidado periodista y astuto reportero que está investigando una empresa llamada Fundación Vida. Esta fundación, dirigida por el eminente científico Carlton Drake (Riz Ahmed), está ejecutando secretamente experimentos ilegales en seres humanos y realizando pruebas que involucran formas de vida extraterrestres y amorfas conocidas como simbiontes. Durante una visita furtiva a la central, el periodista quedará infectado por un simbionte. Comenzará entonces a experimentar cambios en su cuerpo que no entiende, y escuchará una voz interior, la del simbionte Venom, que le dirá lo que tiene que hacer. Cuando Brock adquiera los poderes del simbionte que le usa como huésped, Venom tomará posesión de su cuerpo, convirtiéndole en un despiadado y peligroso súpervillano.

Este spin-off de Spider-Man sobre el personaje de Venom, creado a principios de los años 80 por los autores de cómics David Michelinie y Todd McFarlane, supone el inicio de un nuevo Universo propio de Sony Pictures a partir de los personajes más conocidos de El Hombre Araña. Ruben Fleischer (Gangster Squad. Brigada de élite, Bienvenidos a Zombieland) dirige este filme de acción, terror y ciencia-ficción que protagoniza Tom Hardy (Dunkerque, Peaky Blinders) en el papel de Eddie Brock. Completan el reparto Michelle Williams (Todo el dinero del mundo, El gran showman), Riz Ahmed (Rogue One: Una historia de Star Wars, The Night Of), Woody Harrelson (Tres anuncios en las afueras, Wilson), Scott Haze (Héroes en el infierno, Deber cumplido) y Jenny Slate (Un don excepcional, Parks and Recreation).

Ficha técnica

Video trailer de la película

Enlaces de descarga

Rip de Bluray

Descargar Venom (2018) Full 1080p Latino ( PLACEBO)




Aportes de DPeliculasHDmega la pass es:dpeliculashdmega.org Aportes de CinemaniaHD la pass es:cinemaniahdd.com
Guardado en : Ciencia ficción , Estrenos , Placebo

Películas relacionadas

  • Liga de la Justicia (2017) HD 1080p Latino

    2017
    Liga de la Justicia (2017) HD 1080p Latino

    5.0 2h 1m 2017

    Descargar Liga de la Justicia (2017) HD 1080p Latino, Mega, Google Drive, Torrent. Motivado por la fe...

    Director: Zack Snyder

    Género: Acción

    Actores: Sergi Constance

  • Escuadrón suicida (2016) Extended 1080p Latino

    2016
    Escuadrón suicida (2016) Extended 1080p Latino

    5.0 2h 3m 2016

    Descargar Escuadrón suicida (2016) Extended 1080p Latino, Mega, Google Drive, Torrent. Mientras el gobierno...

    Director: Shane B. Scott

    Género: Acción

    Actores: William Hainsworth

  • Escuadrón suicida (2016) Extended Full 1080p Latino

    2016
    Escuadrón suicida (2016) Extended Full 1080p Latino

    5.0 2 h 14 min 2016

    Descargar Escuadrón suicida (2016) Extended 1080p Latino, Mega, Google Drive, Torrent. Mientras el gobierno...

    Director: Shane B. Scott

    Género: Acción

    Actores: William Hainsworth

  • Singularity (2017) HD 1080p Español Latino

    2017
    Singularity (2017) HD 1080p Español Latino

    0.0 1h 32m 2017

    Descargar Singularity (2017) HD 1080p Español Latino, Mega, Google Drive, Torrent. VA Industries es...

    Director: Robert Kouba

    Género: Ciencia ficción

    Actores: Julian Schaffner

Comentarios 10
  • Michael - 14 diciembre, 2018

    que quiere decir placebo veo que últimamente lo ponen en los encabezados porque?

  • SW - 12 diciembre, 2018

    Increible que tan rapido hayan caido los enlaces mega y que se haya saturado google drive. De todos modos aun está el 1fichiera. Muchas gracias.

  • ocpgaiden - 12 diciembre, 2018

    Muy buena pelicula , gracias y saludos

  • Aleft - 11 diciembre, 2018

    Hola, no funciona torrent o jdownloader

    • dpelis - 11 diciembre, 2018

      ya esta reparado

  • Marcos - 11 diciembre, 2018

    Amigo no puedo descargarlo por google drive

    • dpelis - 11 diciembre, 2018

      la cuenta se saturo, porfavor usar mega u torrent

  • Marco Antonio Caceres - 11 diciembre, 2018

    No puedo descargarlo por Google Drive

    • dpelis - 11 diciembre, 2018

      la cuenta se saturo, porfavor usar mega u torrent