Venom (2018) 1080p Latino

11.999 vistas
1 estrella2 estrellas3 estrellas4 estrellas5 estrellas (15 votos, promedio: 4,20 de 5)
Cargando…

Información de Venom (2018) 1080p Latino

Datos de la película

  • Calidad: 1080p
  • Audio: Español Latino AC3 5.1 DVD - Ingles AC3 5.1 BLURAY
  • Subtitulos: Español Latino SRT- FORZADOS SRT
  • Resolución: 1920x800
  • Formato: MKV
  • Codec: H.264
  • Encoder: CinefiloCool
  • Mediainfo: Clic para Mostrar Datos Ver
  • Venom (2018)  1080p Latino 5.1.mkv
    Format                      : Matroska
    Format version              : Version 4
    File size                   : 3.28 GiB
    Duration                    : 1 h 52 min
    Overall bit rate mode       : Variable
    Overall bit rate            : 4 186 kb/s
    Movie name                  : CinemaniaHDD.net
    Encoded date                : UTC 2018-12-06 22:22:17
    Writing application         : mkvmerge v28.2.0 ('The Awakening') 64-bit
    Writing library             : libebml v1.3.6 + libmatroska v1.4.9

    Video
    ID                          : 1
    Format                      : AVC
    Format/Info                 : Advanced Video Codec
    Format profile              : [email protected]
    Format settings             : CABAC / 5 Ref Frames
    Format settings, CABAC      : Yes
    Format settings, ReFrames   : 5 frames
    Codec ID                    : V_MPEG4/ISO/AVC
    Duration                    : 1 h 52 min
    Bit rate mode               : Variable
    Bit rate                    : 3 353 kb/s
    Maximum bit rate            : 40.0 Mb/s
    Width                       : 1 920 pixels
    Height                      : 800 pixels
    Display aspect ratio        : 2.40:1
    Frame rate mode             : Constant
    Frame rate                  : 23.976 (24000/1001) FPS
    Color space                 : YUV
    Chroma subsampling          : 4:2:0
    Bit depth                   : 8 bits
    Scan type                   : Progressive
    Bits/(Pixel*Frame)          : 0.091
    Stream size                 : 2.63 GiB (80%)
    Default                     : Yes
    Forced                      : No
    Color range                 : Limited
    Color primaries             : BT.709
    Transfer characteristics    : BT.709
    Matrix coefficients         : BT.709

    Audio #1
    ID                          : 2
    Format                      : AC-3
    Format/Info                 : Audio Coding 3
    Commercial name             : Dolby Digital
    Codec ID                    : A_AC3
    Duration                    : 1 h 52 min
    Bit rate mode               : Constant
    Bit rate                    : 384 kb/s
    Channel(s)                  : 6 channels
    Channel layout              : L R C LFE Ls Rs
    Sampling rate               : 48.0 kHz
    Frame rate                  : 31.250 FPS (1536 SPF)
    Bit depth                   : 16 bits
    Compression mode            : Lossy
    Stream size                 : 308 MiB (9%)
    Language                    : Spanish
    Service kind                : Complete Main
    Default                     : Yes
    Forced                      : No

    Audio #2
    ID                          : 3
    Format                      : AC-3
    Format/Info                 : Audio Coding 3
    Commercial name             : Dolby Digital
    Codec ID                    : A_AC3
    Duration                    : 1 h 52 min
    Bit rate mode               : Constant
    Bit rate                    : 448 kb/s
    Channel(s)                  : 6 channels
    Channel layout              : L R C LFE Ls Rs
    Sampling rate               : 48.0 kHz
    Frame rate                  : 31.250 FPS (1536 SPF)
    Bit depth                   : 16 bits
    Compression mode            : Lossy
    Stream size                 : 359 MiB (11%)
    Language                    : English
    Service kind                : Complete Main
    Default                     : No
    Forced                      : No

    Text #1
    ID                          : 4
    Format                      : UTF-8
    Codec ID                    : S_TEXT/UTF8
    Codec ID/Info               : UTF-8 Plain Text
    Duration                    : 1 h 50 min
    Bit rate                    : 46 b/s
    Count of elements           : 1185
    Stream size                 : 37.5 KiB (0%)
    Language                    : Spanish
    Default                     : No
    Forced                      : No

    Text #2
    ID                          : 5
    Format                      : UTF-8
    Codec ID                    : S_TEXT/UTF8
    Codec ID/Info               : UTF-8 Plain Text
    Duration                    : 1 h 33 min
    Bit rate                    : 0 b/s
    Count of elements           : 20
    Stream size                 : 512 Bytes (0%)
    Language                    : Spanish
    Default                     : Yes
    Forced                      : No

  • Peso: 3.28 GiB

Sinopsis

Descargar Venom (2018) Mega 1080p Latino por Google Drive tambien podras descargar gratis Venom hd 1080p latino Eddie Brock (Tom Hardy) es un consolidado periodista y astuto reportero que está investigando una empresa llamada Fundación Vida. Esta fundación, dirigida por el eminente científico Carlton Drake (Riz Ahmed), está ejecutando secretamente experimentos ilegales en seres humanos y realizando pruebas que involucran formas de vida extraterrestres y amorfas conocidas como simbiontes. Durante una visita furtiva a la central, el periodista quedará infectado por un simbionte. Comenzará entonces a experimentar cambios en su cuerpo que no entiende, y escuchará una voz interior, la del simbionte Venom, que le dirá lo que tiene que hacer. Cuando Brock adquiera los poderes del simbionte que le usa como huésped, Venom tomará posesión de su cuerpo, convirtiéndole en un despiadado y peligroso súpervillano.

El Video Incluye Extra Spider-Man: Into the Spider-Verse

RESUBIDA

Ficha técnica

Video trailer de la película

Enlaces de descarga

Aportes de DPeliculasHDmega la pass es:dpeliculashdmega.org Aportes de CinemaniaHD la pass es:cinemaniahdd.com
Guardado en : Ciencia ficción , HD 1080p

Películas relacionadas

  • La favorita (2018) 1080p Latino

    2018
    La favorita (2018) 1080p Latino

    0.0 2h 0m 2018

    Descargar La favorita (2018) 1080p Latino, Mega, Google Drive, Torrent. Principios del siglo XVIII. Inglaterra...

    Director: Yorgos Lanthimos

    Género: Comedia

    Actores: Wilson Radjou-Pujalte

  • Instant Family (2018) 1080p Latino

    2018
    Instant Family (2018) 1080p Latino

    5.0 1h 58m 2018

    La emoción y alegría de convertirse en padres llega de pronto para Pete y Ellie, una joven pareja que...

    Director: Sean Anders

    Género: Comedia

    Actores: Valente Rodriguez

  • El Depredador (2018) 4K UHD HDR Latino

    2018
    El Depredador (2018) 4K UHD HDR Latino

    5.0 1h 41m 2018

    Descargar El Depredador (2018) 4K UHD HDR Latino, Mega, Google Drive. Desde los confines del espacio...

    Director: Shane Black

    Género: 4K HDR

    Actores: Yvonne Strahovski

  • Venom (2018) 4K UHD HDR Latino

    2018
    Venom (2018) 4K UHD HDR Latino

    5.0 1h 52m 2018

    Descargar Venom (2018) 4K UHD HDR Latino, Mega, Google Drive. Eddie Brock (Tom Hardy) es un consolidado...

    Director: Spiro Razatos

    Género: 4K HDR

    Actores: Zeva DuVall

  • Máquinas mortales (2018) WEB-DL 1080p Latino

    2018
    Máquinas mortales (2018) WEB-DL 1080p Latino

    3.8 2h 8m 2018

    En un futuro distópico, las ciudades son gigantes fortalezas en movimiento por el planeta que luchan...

    Director: Christian Rivers

    Género: Acción

    Actores: Yoson An

Comentarios 15
  • Levi - 11 diciembre, 2018

    No he visto ni descargado esta película, sólo quiero comentar… 🙂
    me parece un muy buen sitio para descargar películas, los enlaces van directo a los archivos y no a esos acortadores llenos de publicidad, las películas tienen buena calidad.
    Quiero felicitar a los responsables del sitio y alentar a continuar aportando, yo no tengo peliculas para aportar(recien empiezo a descargar) y las que he descargado de otros sitios están en calidad inferior, no vale la pena subirlas aquí.
    Pero pienso conseguir pronto un disco externo y copiar un montón de películas para aportar a este sitio, supongo que las puedo compartir con los encargados a travez de Mega.
    Felicidades nuevamente a los encargados y ánimo
    y a los que descargan, aporten para que mejore la variedad

  • Pedro B. - 08 diciembre, 2018

    Al intentar descargar por google me dice que el archivo no esta disponible y eso mismo pasa con otras peliculas que en su enlace incluye la parte de sec27.edu.mx en el link de descarga, pero ni quitando esa parte funciona el enlace. 🙁

    • dpelis - 09 diciembre, 2018

      use el torrent

  • Sapoberto - 08 diciembre, 2018

    Gracias por la. película pero. el audio no está sincronizado

    • dpelis - 08 diciembre, 2018

      reparado, gracias por avisar , Saludos

  • Raúl - 07 diciembre, 2018

    Muchas gracias, solo para infomar que el audio esta mal sincronizado, yo lo pude sicronizar con el MkvEdge pero solo les informo, para que arreglen el poblema antes que mas gente la baje, Saludos.

    • dpelis - 08 diciembre, 2018

      gracias fue reparado, con un delay de -1000 ya queda solucionado. Saludos

  • Lucas - 07 diciembre, 2018

    El Audio esta desincronizado, o soy solo yo?

    • dpelis - 07 diciembre, 2018

      que minuto?

      • Lucas - 08 diciembre, 2018

        Toda la película,la descarga le hice por torrent, igualmente pude ajustarla

        • dpelis - 08 diciembre, 2018

          necesito saber el tiempo para revisar, porque nadie mas a mencionado

  • jordan - 28 noviembre, 2018

    una consulta el video esta bien ya que en otro sitio tenia la pelicula frenada en post credito viene el corto de hombre araña animado

    • dpelis - 28 noviembre, 2018

      ya se comento que el video esta bien. todo limpio, y tiene los extras del spider man

  • oscar2030 - 28 noviembre, 2018

    Hola! esta version esta limpia? pregunto porque me la descargue de otro sitio y tenia spam en el audio y vídeo

    • dpelis - 28 noviembre, 2018

      descargar sin problema. todo limpio