Van Helsing (2004) REMUX 1080p Latino

54 vistas
1 estrella2 estrellas3 estrellas4 estrellas5 estrellas (1 votos, promedio: 5,00 de 5)
Cargando...

Información de Van Helsing (2004) REMUX 1080p Latino

Datos de la película

  • Calidad: Full 1080p
  • Audio: Español Latino DTS 5.1 BLURAY - Ingles DTS-HD 5.1 BLURAY
  • Subtitulos: Español Latino PGS - Ingles PGS
  • Resolución: 1920x1080p
  • Formato: MKV
  • Codec: H.264
  • Encoder: CinefiloCool
  • Mediainfo: Clic para Mostrar Datos Ver
  • Van Helsing (2004) REMUX 1080p Latino-CMHDD.mkv
    Format                      : Matroska
    Format version              : Version 4
    File size                   : 29.6 GiB
    Duration                    : 2 h 11 min
    Overall bit rate mode       : Variable
    Overall bit rate            : 32.2 Mb/s
    Movie name                  : Van Helsing (2004) CinemaniaHDD.Net
    Encoded date                : UTC 2020-12-27 07:34:47
    Writing application         : mkvmerge v51.0.0 ('I Wish') 64-bit
    Writing library             : libebml v1.4.0 + libmatroska v1.6.2
    Attachments                 : CINEMANIAHD.png

    Video
    ID                          : 1
    Format                      : AVC
    Format/Info                 : Advanced Video Codec
    Format profile              : High@L4.1
    Format settings             : CABAC / 4 Ref Frames
    Format settings, CABAC      : Yes
    Format settings, Reference  : 4 frames
    Codec ID                    : V_MPEG4/ISO/AVC
    Duration                    : 2 h 11 min
    Bit rate mode               : Variable
    Bit rate                    : 26.9 Mb/s
    Maximum bit rate            : 35.0 Mb/s
    Width                       : 1 920 pixels
    Height                      : 1 080 pixels
    Display aspect ratio        : 16:9
    Frame rate mode             : Constant
    Frame rate                  : 23.976 (24000/1001) FPS
    Color space                 : YUV
    Chroma subsampling          : 4:2:0
    Bit depth                   : 8 bits
    Scan type                   : Progressive
    Bits/(Pixel*Frame)          : 0.541
    Stream size                 : 24.7 GiB (83%)
    Title                       : REMUX HD1080p [CinemaniaHDD]
    Default                     : Yes
    Forced                      : No
    Color range                 : Limited
    Color primaries             : BT.709
    Transfer characteristics    : BT.709
    Matrix coefficients         : BT.709

    Audio #1
    ID                          : 2
    Format                      : DTS
    Format/Info                 : Digital Theater Systems
    Codec ID                    : A_DTS
    Duration                    : 2 h 11 min
    Bit rate mode               : Constant
    Bit rate                    : 768 kb/s
    Channel(s)                  : 6 channels
    Channel layout              : C L R Ls Rs LFE
    Sampling rate               : 48.0 kHz
    Frame rate                  : 93.750 FPS (512 SPF)
    Bit depth                   : 24 bits
    Compression mode            : Lossy
    Stream size                 : 723 MiB (2%)
    Title                       : Español Latino [CinemaniaHDD]
    Language                    : Spanish
    Default                     : Yes
    Forced                      : No

    Audio #2
    ID                          : 3
    Format                      : DTS XLL
    Format/Info                 : Digital Theater Systems
    Commercial name             : DTS-HD Master Audio
    Codec ID                    : A_DTS
    Duration                    : 2 h 11 min
    Bit rate mode               : Variable
    Bit rate                    : 4 566 kb/s
    Channel(s)                  : 6 channels
    Channel layout              : C L R Ls Rs LFE
    Sampling rate               : 48.0 kHz
    Frame rate                  : 93.750 FPS (512 SPF)
    Bit depth                   : 24 bits
    Compression mode            : Lossless
    Stream size                 : 4.19 GiB (14%)
    Title                       : Ingles [CinemaniaHDD]
    Language                    : English
    Default                     : No
    Forced                      : No

    Text #1
    ID                          : 4
    Format                      : PGS
    Muxing mode                 : zlib
    Codec ID                    : S_HDMV/PGS
    Codec ID/Info               : Picture based subtitle format used on BDs/HD-DVDs
    Duration                    : 2 h 1 min
    Bit rate                    : 20.5 kb/s
    Count of elements           : 1878
    Stream size                 : 17.8 MiB (0%)
    Title                       : Español-PGS [CinemaniaHDD]
    Language                    : Spanish
    Default                     : No
    Forced                      : No

    Text #2
    ID                          : 5
    Format                      : PGS
    Muxing mode                 : zlib
    Codec ID                    : S_HDMV/PGS
    Codec ID/Info               : Picture based subtitle format used on BDs/HD-DVDs
    Duration                    : 1 h 58 min
    Bit rate                    : 23.7 kb/s
    Count of elements           : 2021
    Stream size                 : 20.2 MiB (0%)
    Title                       : Ingles-PGS [CinemaniaHDD]
    Language                    : Spanish
    Default                     : No
    Forced                      : No

    Text #3
    ID                          : 6
    Format                      : UTF-8
    Codec ID                    : S_TEXT/UTF8
    Codec ID/Info               : UTF-8 Plain Text
    Duration                    : 2 h 1 min
    Bit rate                    : 0 b/s
    Count of elements           : 8
    Stream size                 : 163 Bytes (0%)
    Title                       : Forzados-SRT [CinemaniaHDD]
    Language                    : Spanish
    Default                     : Yes
    Forced                      : No

    Text #4
    ID                          : 7
    Format                      : UTF-8
    Codec ID                    : S_TEXT/UTF8
    Codec ID/Info               : UTF-8 Plain Text
    Duration                    : 2 h 1 min
    Bit rate                    : 37 b/s
    Count of elements           : 1060
    Stream size                 : 33.1 KiB (0%)
    Title                       : Español-SRT [CinemaniaHDD]
    Language                    : Spanish
    Default                     : No
    Forced                      : No

    Menu
    00:00:00.000                : en:It's Alive
    00:07:49.218                : en:The Vatican's Avenger
    00:13:42.613                : en:The Order
    00:20:14.504                : en:Werewolf Hunters
    00:23:12.724                : en:Welcome to Transylvania
    00:33:58.036                : en:His Name Is Van Helsing
    00:38:22.258                : en:Looking for Answers
    00:40:34.265                : en:Curse of the Werewolf
    00:48:41.793                : en:Castle Frankenstein
    00:53:18.862                : en:Dracula's Children
    01:02:07.056                : en:Old Acquaintances
    01:04:31.784                : en:Failure
    01:08:42.952                : en:The Living Painting
    01:09:54.982                : en:The Frankenstein Monster
    01:14:17.703                : en:Hell on Wheels
    01:18:55.313                : en:Mark of the Wolf
    01:23:57.866                : en:The Monster's Ball
    01:29:19.103                : en:Van Helsing's Vow
    01:31:11.340                : en:The Door to Dracula
    01:37:30.970                : en:The Cure
    01:40:34.528                : en:Life for My Children
    01:43:46.345                : en:You Can Go When You're Dead
    01:45:56.808                : en:The Spawning
    01:50:21.197                : en:The Only Way
    01:55:16.075                : en:The Left Hand of God
    01:57:08.396                : en:Sacrifice
    01:58:42.240                : en:Reunion
    02:02:01.188                : en:End Titles
    02:11:30.340                : en:Chapter 29

  • Peso: 29.6 GiB

Sinopsis

Descargar Van Helsing (2004) REMUX 1080p Latino. Siglo XIX. En medio de los montes de los Cárpatos está la misteriosa y mítica Transilvania, donde el mal siempre está presente, el peligro aparece cuando el sol se pone… y donde toman forma los monstruos que habitan las pesadillas de los hombres.

Ficha técnica

Video trailer de la película

Enlaces de descarga

Rip de Bluray

Descargar Van Helsing (2004) REMUX 1080p Latino




Aportes de DPeliculasHDmega la pass es:dpeliculashdmega.org Aportes de CinemaniaHD la pass es:cinemaniahdd.com
Guardado en : Acción , Aventura , Remux , Terror

Películas relacionadas

  • 100% Lobo (2020) REMUX 1080p Latino

    100% Lobo (2020) REMUX 1080p Latino

    2020
    100% Lobo (2020) REMUX 1080p Latino

    0.0 1h 25m 2020

    Descargar 100% Lobo (2020) REMUX 1080p Latino. Freddy Lupin pertenece a una orgullosa familia de hombres...

    Director: Alexs Stadermann

    Género: Animación

    Actores: Samara Weaving

  • Sentinelle (2021) NF WEB-DL 1080p Latino

    Sentinelle (2021) NF WEB-DL 1080p Latino

    2021
    Sentinelle (2021) NF WEB-DL 1080p Latino

    5.0 1h 20m 2021

    De regreso en su casa tras una traumática misión de combate, una soldado altamente capacitada emplea...

    Director: Julien Leclercq

    Género: Acción

    Actores: Olga Kurylenko

  • El gran Gatsby (2013) REMUX 1080p Latino

    El gran Gatsby (2013) REMUX 1080p Latino

    2013
    El gran Gatsby (2013) REMUX 1080p Latino

    5.0 2h 23m 2013

    Descargar El gran Gatsby (2013) REMUX 1080p Latino. Adaptación de la novela homónima de F. Scott Fitzgerald....

    Director: Scott Lovelock

    Género: Drama

    Actores: Vince Colosimo

Van Helsing (2004) REMUX 1080p Latino pelicula full hd, Van Helsing (2004) REMUX 1080p Latino mega latino, Van Helsing (2004) REMUX 1080p Latino 4k latino, Van Helsing (2004) REMUX 1080p Latino pelicula completa, Van Helsing (2004) REMUX 1080p Latino descargar gratis, descargar Van Helsing (2004) REMUX 1080p Latino pelicula latino, Van Helsing (2004) REMUX 1080p Latino 1 link mega, Van Helsing (2004) REMUX 1080p Latino 1 link google drive, Van Helsing (2004) REMUX 1080p Latino hd 1080p latino.
Comentarios 1
  • ocpgaiden - 24 enero, 2021

    Gracias por el remux, saludos