×

¿Problemas para descargar con Mozilla, EDGE? Deshabilita la opción "Abrir vinculos en una pestaña nueva" tal como lo muestra ésta imagen.

Unforgiven (1992) REMUX 1080p Latino – CMHDD

358 vistas

Información de Unforgiven (1992) REMUX 1080p Latino – CMHDD

Datos de la película

  • Calidad: Full 1080p
  • Audio: Español Latino AC3 2.0 BLURAY - Ingles DTS 5.1 BLURAY
  • Subtitulos: Español Latino SRT- FORZADOS SRT
  • Resolución: 1920x1080p
  • Formato: MKV
  • Codec: H.264
  • Encoder: Dracarys
  • Mediainfo: Clic para Mostrar Datos Ver
  • Format                      : Matroska
    Format version              : Version 4
    File size                   : 27.8 GiB
    Duration                    : 2 h 10 min
    Overall bit rate mode       : Variable
    Overall bit rate            : 30.5 Mb/s
    Movie name                  : Unforgiven (1992) REMUX 1080p Latino - CMHDD
    Encoded date                : UTC 2020-05-13 06:15:45
    Writing application         : mkvmerge v46.0.0 ('No Deeper Escape') 64-bit
    Writing library             : libebml v1.3.10 + libmatroska v1.5.2

    Video
    ID                          : 1
    Format                      : AVC
    Format/Info                 : Advanced Video Codec
    Format profile              : High@L4.1
    Format settings             : CABAC / 4 Ref Frames
    Format settings, CABAC      : Yes
    Format settings, Reference  : 4 frames
    Codec ID                    : V_MPEG4/ISO/AVC
    Duration                    : 2 h 10 min
    Bit rate mode               : Variable
    Bit rate                    : 25.9 Mb/s
    Maximum bit rate            : 30.0 Mb/s
    Width                       : 1 920 pixels
    Height                      : 1 080 pixels
    Display aspect ratio        : 16:9
    Frame rate mode             : Constant
    Frame rate                  : 23.976 (24000/1001) FPS
    Color space                 : YUV
    Chroma subsampling          : 4:2:0
    Bit depth                   : 8 bits
    Scan type                   : Progressive
    Bits/(Pixel*Frame)          : 0.521
    Stream size                 : 23.6 GiB (85%)
    Language                    : English
    Default                     : Yes
    Forced                      : No

    Audio #1
    ID                          : 2
    Format                      : AC-3
    Format/Info                 : Audio Coding 3
    Commercial name             : Dolby Digital
    Codec ID                    : A_AC3
    Duration                    : 2 h 10 min
    Bit rate mode               : Constant
    Bit rate                    : 192 kb/s
    Channel(s)                  : 2 channels
    Channel layout              : L R
    Sampling rate               : 48.0 kHz
    Frame rate                  : 31.250 FPS (1536 SPF)
    Compression mode            : Lossy
    Delay relative to video     : 1 s 900 ms
    Stream size                 : 179 MiB (1%)
    Language                    : Spanish
    Service kind                : Complete Main
    Default                     : Yes
    Forced                      : No

    Audio #2
    ID                          : 3
    Format                      : DTS XLL
    Format/Info                 : Digital Theater Systems
    Commercial name             : DTS-HD Master Audio
    Codec ID                    : A_DTS
    Duration                    : 2 h 10 min
    Bit rate mode               : Variable
    Bit rate                    : 4 394 kb/s
    Channel(s)                  : 6 channels
    Channel layout              : C L R Ls Rs LFE
    Sampling rate               : 48.0 kHz
    Frame rate                  : 93.750 FPS (512 SPF)
    Bit depth                   : 24 bits
    Compression mode            : Lossless
    Stream size                 : 4.01 GiB (14%)
    Language                    : English
    Default                     : No
    Forced                      : No

    Text #1
    ID                          : 4
    Format                      : UTF-8
    Codec ID                    : S_TEXT/UTF8
    Codec ID/Info               : UTF-8 Plain Text
    Duration                    : 2 h 9 min
    Bit rate                    : 1 b/s
    Count of elements           : 23
    Stream size                 : 1.06 KiB (0%)
    Title                       : SRT-Forzados
    Language                    : Spanish
    Default                     : Yes
    Forced                      : No

    Text #2
    ID                          : 5
    Format                      : UTF-8
    Codec ID                    : S_TEXT/UTF8
    Codec ID/Info               : UTF-8 Plain Text
    Duration                    : 2 h 10 min
    Bit rate                    : 42 b/s
    Count of elements           : 1407
    Stream size                 : 40.3 KiB (0%)
    Title                       : SRT-Completos
    Language                    : Spanish
    Default                     : No
    Forced                      : No

    Text #3
    ID                          : 6
    Format                      : PGS
    Muxing mode                 : zlib
    Codec ID                    : S_HDMV/PGS
    Codec ID/Info               : Picture based subtitle format used on BDs/HD-DVDs
    Duration                    : 2 h 10 min
    Bit rate                    : 24.3 kb/s
    Count of elements           : 2814
    Stream size                 : 22.6 MiB (0%)
    Title                       : PGS-Completos
    Language                    : Spanish
    Default                     : No
    Forced                      : No

    Text #4
    ID                          : 7
    Format                      : PGS
    Muxing mode                 : zlib
    Codec ID                    : S_HDMV/PGS
    Codec ID/Info               : Picture based subtitle format used on BDs/HD-DVDs
    Duration                    : 2 h 10 min
    Bit rate                    : 644 b/s
    Count of elements           : 48
    Stream size                 : 614 KiB (0%)
    Title                       : PGS-Forzados
    Language                    : Spanish
    Default                     : No
    Forced                      : No

    Menu
    00:00:00.000                : en:Forward
    00:01:11.863                : en:Big Whiskey Disturbance
    00:03:54.359                : en:"No Fuss" Fine
    00:07:01.379                : en:"We Ain't Horses"
    00:08:17.622                : en:Schofield Kid
    00:14:10.808                : en:Payment Day
    00:16:54.805                : en:Out of Practice
    00:24:18.582                : en:Done Stuff for Money
    00:28:52.689                : en:Just a Fella Now
    00:31:42.358                : en:Majesty f Royalty
    00:34:34.864                : en:No Firearm Allowed
    00:38:54.123                : en:Welcoming English Bob
    00:46:24.907                : en:Not-So-Straight Shooter
    00:53:44.346                : en:Duke of Death
    00:58:05.273                : en:Killers' Campfire
    01:00:24.912                : en:Object Lesson
    01:06:49.130                : en:Farewell to Savages
    01:09:36.297                : en:Vision of the Dead
    01:13:48.882                : en:Big Whiskey Hospitality
    01:20:59.813                : en:Angel of Death
    01:24:46.873                : en:"We Both Got Scars"
    01:29:38.998                : en:Water for a Dying Man
    01:34:27.453                : en:Ned's Decision
    01:36:10.890                : en:"He Had it Coming"
    01:41:11.190                : en:Interrogating Ned
    01:43:13.812                : en:Assassins Strike
    01:45:50.469                : en:A Hell of a Thing
    01:49:19.344                : en:Will's Only Friend
    01:53:14.746                : en:On Display
    01:54:34.325                : en:Here To Kill You
    01:58:21.719                : en:"Deserves Got Nothin' to Do With It"
    02:02:13.117                : en:Killer's Threat
    02:04:32.256                : en:Epilogue and End Credits
    02:10:40.374                : en:02:10:40.374

  • Peso: 27.8 GiB

Sinopsis

Magistral western crepuscular que relata la historia de William Munny, un pistolero retirado, viudo y padre de familia, que pasa por dificultades. Hace años que abandonó la violencia, pero ahora su única salida para sacar adelante a su familia es hacer un último trabajo como caza recompensas, acompañado por un viejo socio y un joven e inexperto novato. Su misión: matar a dos hombres que cortaron la cara a una prostituta.

Ficha técnica

Video trailer de la película

Enlaces de descarga

Rip de Bluray

Descargar Unforgiven (1992) REMUX 1080p Latino – CMHDD




Aportes de DPeliculasHDmega la pass es:dpeliculashdmega.org Aportes de CinemaniaHD la pass es:cinemaniahdd.com
Guardado en : Remux , Western

Películas relacionadas

descargar Unforgiven (1992) REMUX 1080p Latino – CMHDD Full 1080p 1080p gratis, Unforgiven (1992) REMUX 1080p Latino – CMHDD Full 1080p mega 1 link, Unforgiven (1992) REMUX 1080p Latino – CMHDD Full 1080p pelicula completa, descargar Unforgiven (1992) REMUX 1080p Latino – CMHDD Full 1080p gratis en mega.

Unforgiven (1992) REMUX 1080p Latino – CMHDD pelicula full hd, Unforgiven (1992) REMUX 1080p Latino – CMHDD mega latino, Unforgiven (1992) REMUX 1080p Latino – CMHDD 4k latino, Unforgiven (1992) REMUX 1080p Latino – CMHDD pelicula completa, Unforgiven (1992) REMUX 1080p Latino – CMHDD descargar gratis, descargar Unforgiven (1992) REMUX 1080p Latino – CMHDD pelicula latino, Unforgiven (1992) REMUX 1080p Latino – CMHDD 1 link mega, Unforgiven (1992) REMUX 1080p Latino – CMHDD 1 link google drive, Unforgiven (1992) REMUX 1080p Latino – CMHDD hd 1080p latino.
Comentarios 0