×

¿Problemas para descargar con Mozilla, EDGE? Deshabilita la opción "Abrir vinculos en una pestaña nueva" tal como lo muestra ésta imagen.

Una serie de eventos desafortunados (2019) Tercera Temporada [NF] WEB-DL 1080p Latino

791 vistas

Información de Una serie de eventos desafortunados (2019) Tercera Temporada [NF] WEB-DL 1080p Latino

Datos de la película

  • Calidad: WEBDL
  • Audio: Español Latino AC3 5.1 Netflix - Ingles AC3 5.1 Netflix
  • Subtitulos: Español Latino SRT - Ingles SRT
  • Resolución: 1920x1080p
  • Formato: MKV
  • Codec: H.264
  • Encoder: Dracarys
  • Mediainfo: Clic para Mostrar Datos Ver
  • Format                      : Matroska
    Format version              : Version 4
    File size                   : 1.75 GiB
    Duration                    : 43 min 52 s
    Overall bit rate mode       : Variable
    Overall bit rate            : 5 700 kb/s
    Movie name                  : CinemaniaHDD.net
    Encoded date                : UTC 2019-01-22 20:40:21 / UTC 2018-12-18 01:01:12
    Writing application         : mkvmerge v30.1.0 ('Forever And More') 64-bit
    Writing library             : libebml v1.3.6 + libmatroska v1.4.9 / Lavf58.0.0

    Video
    ID                          : 1
    Format                      : AVC
    Format/Info                 : Advanced Video Codec
    Format profile              : Main@L4
    Format settings             : CABAC / 3 Ref Frames
    Format settings, CABAC      : Yes
    Format settings, ReFrames   : 3 frames
    Codec ID                    : V_MPEG4/ISO/AVC
    Duration                    : 43 min 52 s
    Bit rate mode               : Variable
    Bit rate                    : 4 818 kb/s
    Nominal bit rate            : 5 110 kb/s
    Maximum bit rate            : 7 665 kb/s
    Width                       : 1 920 pixels
    Height                      : 1 080 pixels
    Display aspect ratio        : 16:9
    Frame rate mode             : Constant
    Frame rate                  : 24.000 FPS
    Color space                 : YUV
    Chroma subsampling          : 4:2:0
    Bit depth                   : 8 bits
    Scan type                   : Progressive
    Bits/(Pixel*Frame)          : 0.097
    Stream size                 : 1.48 GiB (85%)
    Writing library             : x264 core 148 r2715 7e75228
    Encoding settings           : cabac=1 / ref=3 / deblock=1:0:0 / analyse=0x1:0x111 / me=umh / subme=10 / psy=1 / psy_rd=1.00:0.00 / mixed_ref=1 / me_range=24 / chroma_me=1 / trellis=2 / 8x8dct=0 / cqm=0 / deadzone=21,11 / fast_pskip=1 / chroma_qp_offset=-2 / threads=8 / lookahead_threads=1 / sliced_threads=0 / nr=0 / decimate=1 / interlaced=0 / bluray_compat=0 / stitchable=1 / constrained_intra=0 / bframes=2 / b_pyramid=0 / b_adapt=2 / b_bias=0 / direct=3 / weightb=1 / open_gop=0 / weightp=2 / keyint=48 / keyint_min=25 / scenecut=0 / intra_refresh=0 / rc_lookahead=48 / rc=2pass / mbtree=1 / bitrate=5110 / ratetol=1.0 / qcomp=0.50 / qpmin=6 / qpmax=51 / qpstep=4 / cplxblur=20.0 / qblur=0.5 / vbv_maxrate=7665 / vbv_bufsize=10220 / nal_hrd=vbr / filler=0 / ip_ratio=1.40 / aq=1:1.00
    Language                    : English
    Default                     : Yes
    Forced                      : No
    Statistics Tags Issue       : mkvmerge v30.1.0 ('Forever And More') 64-bit 2019-01-22 20:40:21 / mkvmerge v30.1.0 ('Forever And More') 64-bit 2019-01-22 20:40:21 / UTC 2018-12-18 01:01:12
    FromStats_BitRate           : 4930111
    FromStats_Duration          : 00:43:52.375000000
    FromStats_FrameCount        : 63177
    FromStats_StreamSize        : 1622237659

    Audio #1
    ID                          : 2
    Format                      : AC-3
    Format/Info                 : Audio Coding 3
    Commercial name             : Dolby Digital
    Codec ID                    : A_AC3
    Duration                    : 43 min 52 s
    Bit rate mode               : Constant
    Bit rate                    : 384 kb/s
    Channel(s)                  : 6 channels
    Channel layout              : L R C LFE Ls Rs
    Sampling rate               : 48.0 kHz
    Frame rate                  : 31.250 FPS (1536 SPF)
    Bit depth                   : 16 bits
    Compression mode            : Lossy
    Stream size                 : 121 MiB (7%)
    Language                    : Spanish
    Service kind                : Complete Main
    Default                     : Yes
    Forced                      : No
    Encoded date                : UTC 2018-12-18 01:04:30
    Statistics Tags Issue       : mkvmerge v30.1.0 ('Forever And More') 64-bit 2019-01-22 20:40:21 / mkvmerge v30.1.0 ('Forever And More') 64-bit 2019-01-22 20:40:21 / UTC 2018-12-18 01:01:12
    FromStats_BitRate           : 384000
    FromStats_Duration          : 00:43:52.736000000
    FromStats_FrameCount        : 82273
    FromStats_StreamSize        : 126371328

    Audio #2
    ID                          : 3
    Format                      : AC-3
    Format/Info                 : Audio Coding 3
    Commercial name             : Dolby Digital
    Codec ID                    : A_AC3
    Duration                    : 43 min 52 s
    Bit rate mode               : Constant
    Bit rate                    : 384 kb/s
    Channel(s)                  : 6 channels
    Channel layout              : L R C LFE Ls Rs
    Sampling rate               : 48.0 kHz
    Frame rate                  : 31.250 FPS (1536 SPF)
    Bit depth                   : 16 bits
    Compression mode            : Lossy
    Stream size                 : 121 MiB (7%)
    Language                    : English
    Service kind                : Complete Main
    Default                     : No
    Forced                      : No
    Encoded date                : UTC 2018-12-18 01:01:12
    Statistics Tags Issue       : mkvmerge v30.1.0 ('Forever And More') 64-bit 2019-01-22 20:40:21 / mkvmerge v30.1.0 ('Forever And More') 64-bit 2019-01-22 20:40:21 / UTC 2018-12-18 01:01:12
    FromStats_BitRate           : 384000
    FromStats_Duration          : 00:43:52.736000000
    FromStats_FrameCount        : 82273
    FromStats_StreamSize        : 126371328

    Text #1
    ID                          : 4
    Format                      : UTF-8
    Codec ID                    : S_TEXT/UTF8
    Codec ID/Info               : UTF-8 Plain Text
    Title                       : Spanish
    Language                    : Spanish
    Default                     : No
    Forced                      : No
    Statistics Tags Issue       : mkvmerge v30.1.0 ('Forever And More') 64-bit 2019-01-22 20:40:21 / mkvmerge v30.1.0 ('Forever And More') 64-bit 2019-01-22 20:40:21 / UTC 2018-12-18 01:01:12
    FromStats_BitRate           : 77
    FromStats_Duration          : 00:42:37.583000000
    FromStats_FrameCount        : 715
    FromStats_StreamSize        : 24745

    Text #2
    ID                          : 5
    Format                      : UTF-8
    Codec ID                    : S_TEXT/UTF8
    Codec ID/Info               : UTF-8 Plain Text
    Title                       : English
    Language                    : English
    Default                     : No
    Forced                      : No
    Statistics Tags Issue       : mkvmerge v30.1.0 ('Forever And More') 64-bit 2019-01-22 20:40:21 / mkvmerge v30.1.0 ('Forever And More') 64-bit 2019-01-22 20:40:21 / UTC 2018-12-18 01:01:12
    FromStats_BitRate           : 101
    FromStats_Duration          : 00:41:39.833000000
    FromStats_FrameCount        : 847
    FromStats_StreamSize        : 31593

     

  • Peso: 1.80 GiB X capitulo Aproximadamente

Sinopsis

Basada en los bestsellers mundiales del escritor Lemony Snicket (pseudónimo de Daniel Handler) y protagonizada por Neil Patrick Harris, ganador de los premios Emmy y Tony, Una serie de catastróficas desdichas relata la trágica historia de los huérfanos Baudelaire —Violet, Klaus y Sunny—, cuyo malvado tutor, el conde Olaf, no se detendrá ante nada para adueñarse de su herencia. Los hermanos tienen que adelantarse siempre a Olaf, desbaratando todos sus planes y argucias, para descubrir pistas sobre la misteriosa muerte de sus padres.

Ficha técnica

Video trailer de la película

Enlaces de descarga

Rip de Bluray

Descargar Una serie de eventos desafortunados (2019) Tercera Temporada [NF] WEB-DL 1080p Latino




Aportes de DPeliculasHDmega la pass es:dpeliculashdmega.org Aportes de CinemaniaHD la pass es:cinemaniahdd.com
Guardado en : Drama , Familia , Misterio , Series

Películas relacionadas

  • Elvis (2022) WEB-DL 4K UHD HDR Latino

    Elvis (2022) WEB-DL 4K UHD HDR Latino

    2022
    Elvis (2022) WEB-DL 4K UHD HDR Latino

    2h 39m 2022

    Descargar Elvis (2022) WEB-DL 4K UHD HDR Latino. La película explora la vida y la música de Elvis Presley...

    Director: Baz Luhrmann

    Género: 4K HDR

    Actores: Yola

  • Elvis (2022) WEB-DL 1080p Latino

    Elvis (2022) WEB-DL 1080p Latino

    2022
    Elvis (2022) WEB-DL 1080p Latino

    2h 39m 2022

    Descargar Elvis (2022) WEB-DL 1080p Latino. La película explora la vida y la música de Elvis Presley...

    Director: Baz Luhrmann

    Género: Drama

    Actores: Yola

Una serie de eventos desafortunados (2019) Tercera Temporada [NF] WEB-DL 1080p Latino pelicula full hd, Una serie de eventos desafortunados (2019) Tercera Temporada [NF] WEB-DL 1080p Latino mega latino, Una serie de eventos desafortunados (2019) Tercera Temporada [NF] WEB-DL 1080p Latino 4k latino, Una serie de eventos desafortunados (2019) Tercera Temporada [NF] WEB-DL 1080p Latino pelicula completa, Una serie de eventos desafortunados (2019) Tercera Temporada [NF] WEB-DL 1080p Latino descargar gratis, descargar Una serie de eventos desafortunados (2019) Tercera Temporada [NF] WEB-DL 1080p Latino pelicula latino, Una serie de eventos desafortunados (2019) Tercera Temporada [NF] WEB-DL 1080p Latino 1 link mega, Una serie de eventos desafortunados (2019) Tercera Temporada [NF] WEB-DL 1080p Latino 1 link google drive, Una serie de eventos desafortunados (2019) Tercera Temporada [NF] WEB-DL 1080p Latino hd 1080p latino.
Comentarios 0