×

¿Problemas para descargar con Mozilla, EDGE? Deshabilita la opción "Abrir vinculos en una pestaña nueva" tal como lo muestra ésta imagen.

Una serie de eventos desafortunados (2018) Segunda Temporada [NF] WEB-DL 1080p Latino

656 vistas

Información de Una serie de eventos desafortunados (2018) Segunda Temporada [NF] WEB-DL 1080p Latino

MV5BMjQ4OTg3ODkyMl5BMl5BanBnXkFtZTgwMjI0OTg5NDM@. V1 SY1000 CR006741000 AL

Datos de la película

  • Calidad: WEBDL
  • Audio: Español Latino AC3 5.1 Netflix - Ingles AC3 5.1 Netflix
  • Subtitulos: Español Latino SRT - Ingles SRT
  • Resolución: 1920x1080p
  • Formato: MKV
  • Codec: H.264
  • Encoder: Dracarys
  • Mediainfo: Clic para Mostrar Datos Ver
  • Format                      : Matroska
    Format version              : Version 4
    File size                   : 1.32 GiB
    Duration                    : 46 min 24 s
    Overall bit rate mode       : Variable
    Overall bit rate            : 4 085 kb/s
    Movie name                  : CinemaniaHDD.net
    Encoded date                : UTC 2019-01-22 20:23:53 / UTC 2018-03-30 15:02:58
    Writing application         : mkvmerge v30.1.0 ('Forever And More') 64-bit
    Writing library             : libebml v1.3.6 + libmatroska v1.4.9 / Lavf58.0.0

    Video
    ID                          : 1
    Format                      : AVC
    Format/Info                 : Advanced Video Codec
    Format profile              : High@L4
    Format settings             : CABAC / 4 Ref Frames
    Format settings, CABAC      : Yes
    Format settings, ReFrames   : 4 frames
    Codec ID                    : V_MPEG4/ISO/AVC
    Duration                    : 46 min 24 s
    Bit rate mode               : Variable
    Bit rate                    : 3 235 kb/s
    Maximum bit rate            : 20.0 Mb/s
    Width                       : 1 920 pixels
    Height                      : 1 080 pixels
    Display aspect ratio        : 16:9
    Frame rate mode             : Constant
    Frame rate                  : 24.000 FPS
    Color space                 : YUV
    Chroma subsampling          : 4:2:0
    Bit depth                   : 8 bits
    Scan type                   : Progressive
    Bits/(Pixel*Frame)          : 0.065
    Stream size                 : 1.05 GiB (79%)
    Writing library             : x264 core 148 r2715 7e75228
    Encoding settings           : cabac=1 / ref=4 / deblock=1:0:0 / analyse=0x3:0x111 / me=umh / subme=10 / psy=1 / psy_rd=1.00:0.00 / mixed_ref=1 / me_range=120 / chroma_me=1 / trellis=2 / 8x8dct=1 / cqm=0 / deadzone=21,11 / fast_pskip=1 / chroma_qp_offset=-2 / threads=8 / lookahead_threads=2 / sliced_threads=0 / nr=0 / decimate=1 / interlaced=0 / bluray_compat=0 / stitchable=1 / constrained_intra=0 / bframes=16 / b_pyramid=2 / b_adapt=2 / b_bias=0 / direct=3 / weightb=1 / open_gop=0 / weightp=2 / keyint=240 / keyint_min=121 / scenecut=0 / intra_refresh=0 / rc_lookahead=240 / rc=crf / mbtree=1 / crf=16.0 / qcomp=0.50 / qpmin=6 / qpmax=51 / qpstep=4 / vbv_maxrate=20000 / vbv_bufsize=25000 / crf_max=0.0 / nal_hrd=vbr / filler=0 / ip_ratio=1.40 / aq=1:0.80
    Language                    : English
    Default                     : Yes
    Forced                      : No
    Statistics Tags Issue       : mkvmerge v30.1.0 ('Forever And More') 64-bit 2019-01-22 20:23:53 / mkvmerge v30.1.0 ('Forever And More') 64-bit 2019-01-22 20:23:53 / UTC 2018-03-30 15:02:58
    FromStats_BitRate           : 3314461
    FromStats_Duration          : 00:46:24.375000000
    FromStats_FrameCount        : 66825
    FromStats_StreamSize        : 1153588089

    Audio #1
    ID                          : 2
    Format                      : AC-3
    Format/Info                 : Audio Coding 3
    Commercial name             : Dolby Digital
    Codec ID                    : A_AC3
    Duration                    : 46 min 24 s
    Bit rate mode               : Constant
    Bit rate                    : 384 kb/s
    Channel(s)                  : 6 channels
    Channel layout              : L R C LFE Ls Rs
    Sampling rate               : 48.0 kHz
    Frame rate                  : 31.250 FPS (1536 SPF)
    Bit depth                   : 16 bits
    Compression mode            : Lossy
    Stream size                 : 127 MiB (9%)
    Language                    : Spanish
    Service kind                : Complete Main
    Default                     : Yes
    Forced                      : No
    Encoded date                : UTC 2018-03-30 15:02:51
    Statistics Tags Issue       : mkvmerge v30.1.0 ('Forever And More') 64-bit 2019-01-22 20:23:53 / mkvmerge v30.1.0 ('Forever And More') 64-bit 2019-01-22 20:23:53 / UTC 2018-03-30 15:02:58
    FromStats_BitRate           : 384000
    FromStats_Duration          : 00:46:24.416000000
    FromStats_FrameCount        : 87013
    FromStats_StreamSize        : 133651968

    Audio #2
    ID                          : 3
    Format                      : AC-3
    Format/Info                 : Audio Coding 3
    Commercial name             : Dolby Digital
    Codec ID                    : A_AC3
    Duration                    : 46 min 24 s
    Bit rate mode               : Constant
    Bit rate                    : 384 kb/s
    Channel(s)                  : 6 channels
    Channel layout              : L R C LFE Ls Rs
    Sampling rate               : 48.0 kHz
    Frame rate                  : 31.250 FPS (1536 SPF)
    Bit depth                   : 16 bits
    Compression mode            : Lossy
    Stream size                 : 127 MiB (9%)
    Language                    : English
    Service kind                : Complete Main
    Default                     : No
    Forced                      : No
    Encoded date                : UTC 2018-03-30 15:02:58
    Statistics Tags Issue       : mkvmerge v30.1.0 ('Forever And More') 64-bit 2019-01-22 20:23:53 / mkvmerge v30.1.0 ('Forever And More') 64-bit 2019-01-22 20:23:53 / UTC 2018-03-30 15:02:58
    FromStats_BitRate           : 384000
    FromStats_Duration          : 00:46:24.416000000
    FromStats_FrameCount        : 87013
    FromStats_StreamSize        : 133651968

    Text #1
    ID                          : 4
    Format                      : UTF-8
    Codec ID                    : S_TEXT/UTF8
    Codec ID/Info               : UTF-8 Plain Text
    Title                       : Spanish
    Language                    : Spanish
    Default                     : No
    Forced                      : No
    Statistics Tags Issue       : mkvmerge v30.1.0 ('Forever And More') 64-bit 2019-01-22 20:23:53 / mkvmerge v30.1.0 ('Forever And More') 64-bit 2019-01-22 20:23:53 / UTC 2018-03-30 15:02:58
    FromStats_BitRate           : 88
    FromStats_Duration          : 00:45:14.042000000
    FromStats_FrameCount        : 745
    FromStats_StreamSize        : 30017

    Text #2
    ID                          : 5
    Format                      : UTF-8
    Codec ID                    : S_TEXT/UTF8
    Codec ID/Info               : UTF-8 Plain Text
    Title                       : English
    Language                    : English
    Default                     : No
    Forced                      : No
    Statistics Tags Issue       : mkvmerge v30.1.0 ('Forever And More') 64-bit 2019-01-22 20:23:53 / mkvmerge v30.1.0 ('Forever And More') 64-bit 2019-01-22 20:23:53 / UTC 2018-03-30 15:02:58
    FromStats_BitRate           : 102
    FromStats_Duration          : 00:44:14.166000000
    FromStats_FrameCount        : 802
    FromStats_StreamSize        : 33938

     

  • Peso: 1.40 GiB X capitulo Aproximadamente

Sinopsis

Basada en los bestsellers mundiales del escritor Lemony Snicket (pseudónimo de Daniel Handler) y protagonizada por Neil Patrick Harris, ganador de los premios Emmy y Tony, Una serie de catastróficas desdichas relata la trágica historia de los huérfanos Baudelaire —Violet, Klaus y Sunny—, cuyo malvado tutor, el conde Olaf, no se detendrá ante nada para adueñarse de su herencia. Los hermanos tienen que adelantarse siempre a Olaf, desbaratando todos sus planes y argucias, para descubrir pistas sobre la misteriosa muerte de sus padres.

Ficha técnica

Video trailer de la película

Enlaces de descarga

Rip de Bluray

Descargar Una serie de eventos desafortunados (2018) Segunda Temporada [NF] WEB-DL 1080p Latino




Aportes de DPeliculasHDmega la pass es:dpeliculashdmega.org Aportes de CinemaniaHD la pass es:cinemaniahdd.com
Guardado en : Drama , Familia , Misterio , Series

Películas relacionadas

descargar Una serie de eventos desafortunados (2018) Segunda Temporada [NF] WEB-DL 1080p Latino WEBDL 1080p gratis, Una serie de eventos desafortunados (2018) Segunda Temporada [NF] WEB-DL 1080p Latino WEBDL mega 1 link, Una serie de eventos desafortunados (2018) Segunda Temporada [NF] WEB-DL 1080p Latino WEBDL serie completa, descargar Una serie de eventos desafortunados (2018) Segunda Temporada [NF] WEB-DL 1080p Latino WEBDL gratis en mega.

Una serie de eventos desafortunados (2018) Segunda Temporada [NF] WEB-DL 1080p Latino pelicula full hd, Una serie de eventos desafortunados (2018) Segunda Temporada [NF] WEB-DL 1080p Latino mega latino, Una serie de eventos desafortunados (2018) Segunda Temporada [NF] WEB-DL 1080p Latino 4k latino, Una serie de eventos desafortunados (2018) Segunda Temporada [NF] WEB-DL 1080p Latino pelicula completa, Una serie de eventos desafortunados (2018) Segunda Temporada [NF] WEB-DL 1080p Latino descargar gratis, descargar Una serie de eventos desafortunados (2018) Segunda Temporada [NF] WEB-DL 1080p Latino pelicula latino, Una serie de eventos desafortunados (2018) Segunda Temporada [NF] WEB-DL 1080p Latino 1 link mega, Una serie de eventos desafortunados (2018) Segunda Temporada [NF] WEB-DL 1080p Latino 1 link google drive, Una serie de eventos desafortunados (2018) Segunda Temporada [NF] WEB-DL 1080p Latino hd 1080p latino.
Comentarios 0