Transformers El lado oscuro de la Luna (2011) 4K HDR Latino – CMHDD

223 vistas
1 estrella2 estrellas3 estrellas4 estrellas5 estrellas (1 votos, promedio: 5,00 de 5)
Cargando...

Información de Transformers El lado oscuro de la Luna (2011) 4K HDR Latino – CMHDD

Datos de la película

  • Calidad: 4K HDR
  • Audio: Se especifica abajo de la Sinopsis
  • Subtitulos: Español Latino SRT- FORZADOS SRT
  • Resolución: 3840x1600p
  • Formato: MKV
  • Codec: HEVC
  • Encoder: Dracarys
  • Mediainfo: Clic para Mostrar Datos Ver
  • Format                      : Matroska
    Format version              : Version 4
    File size                   : 48.1 GiB
    Duration                    : 2 h 34 min
    Overall bit rate mode       : Variable
    Overall bit rate            : 44.6 Mb/s
    Movie name                  : Transformers- El lado oscuro de la Luna (2011) 4K HDR Latino – CMHDD
    Encoded date                : UTC 2020-07-22 22:07:37
    Writing application         : mkvmerge v46.0.0 ('No Deeper Escape') 64-bit
    Writing library             : libebml v1.3.10 + libmatroska v1.5.2

    Video
    ID                          : 1
    Format                      : HEVC
    Format/Info                 : High Efficiency Video Coding
    Format profile              : Main 10@L5.1@High
    HDR format                  : SMPTE ST 2086, HDR10 compatible
    Codec ID                    : V_MPEGH/ISO/HEVC
    Duration                    : 2 h 34 min
    Bit rate                    : 38.0 Mb/s
    Width                       : 3 840 pixels
    Height                      : 1 600 pixels
    Display aspect ratio        : 2.40:1
    Frame rate mode             : Constant
    Frame rate                  : 23.976 (24000/1001) FPS
    Color space                 : YUV
    Chroma subsampling          : 4:2:0 (Type 2)
    Bit depth                   : 10 bits
    Bits/(Pixel*Frame)          : 0.258
    Stream size                 : 40.9 GiB (85%)
    Writing library             : x265 2.6+4-f7498acb3874:[Windows][GCC 7.2.0][64 bit] 10bit
    Encoding settings           : cpuid=1050623 / frame-threads=3 / numa-pools=8 / wpp / no-pmode / no-pme / no-psnr / no-ssim / log-level=2 / input-csp=1 / input-res=3840x1600 / interlace=0 / total-frames=222097 / level-idc=51 / high-tier=1 / uhd-bd=0 / ref=4 / no-allow-non-conformance / repeat-headers / annexb / aud / hrd / info / hash=0 / no-temporal-layers / no-open-gop / min-keyint=24 / keyint=240 / bframes=4 / b-adapt=2 / b-pyramid / bframe-bias=0 / rc-lookahead=25 / lookahead-slices=4 / scenecut=40 / no-intra-refresh / ctu=64 / min-cu-size=8 / rect / no-amp / max-tu-size=32 / tu-inter-depth=1 / tu-intra-depth=1 / limit-tu=0 / rdoq-level=2 / dynamic-rd=0.00 / no-ssim-rd / signhide / no-tskip / nr-intra=0 / nr-inter=0 / no-constrained-intra / no-strong-intra-smoothing / max-merge=3 / limit-refs=3 / limit-modes / me=3 / subme=3 / merange=57 / temporal-mvp / weightp / no-weightb / no-analyze-src-pics / deblock=-3:-3 / no-sao / no-sao-non-deblock / rd=4 / no-early-skip / rskip / no-fast-intra / no-tskip-fast / no-cu-lossless / no-b-intra / no-splitrd-skip / rdpenalty=0 / psy-rd=2.00 / psy-rdoq=1.00 / no-rd-refine / analysis-reuse-mode=0 / no-lossless / cbqpoffs=0 / crqpoffs=0 / rc=crf / crf=17.0 / qcomp=0.60 / qpstep=4 / stats-write=0 / stats-read=0 / vbv-maxrate=160000 / vbv-bufsize=160000 / vbv-init=0.9 / crf-max=0.0 / crf-min=0.0 / ipratio=1.40 / pbratio=1.30 / aq-mode=1 / aq-strength=1.00 / cutree / zone-count=0 / no-strict-cbr / qg-size=32 / no-rc-grain / qpmax=69 / qpmin=0 / no-const-vbv / sar=1 / overscan=0 / videoformat=5 / range=0 / colorprim=9 / transfer=16 / colormatrix=9 / chromaloc=1 / chromaloc-top=2 / chromaloc-bottom=2 / display-window=0 / master-display=G(13250,34500)B(7500,3000)R(34000,16000)WP(15635,16450)L(10000000,1) / max-cll=0,0 / min-luma=0 / max-luma=1023 / log2-max-poc-lsb=8 / vui-timing-info / vui-hrd-info / slices=1 / opt-qp-pps / opt-ref-list-length-pps / no-multi-pass-opt-rps / scenecut-bias=0.05 / no-opt-cu-delta-qp / no-aq-motion / hdr / hdr-opt / no-dhdr10-opt / analysis-reuse-level=5 / scale-factor=0 / refine-intra=0 / refine-inter=0 / refine-mv=0 / no-limit-sao / ctu-info=0 / no-lowpass-dct / refine-mv-type=0 / copy-pic=1
    Language                    : English
    Default                     : Yes
    Forced                      : No
    Color range                 : Limited
    Color primaries             : BT.2020
    Transfer characteristics    : PQ
    Matrix coefficients         : BT.2020 non-constant
    Mastering display color pri : Display P3
    Mastering display luminance : min: 0.0001 cd/m2, max: 1000 cd/m2

    Audio #1
    ID                          : 2
    Format                      : AC-3
    Format/Info                 : Audio Coding 3
    Commercial name             : Dolby Digital
    Codec ID                    : A_AC3
    Duration                    : 2 h 34 min
    Bit rate mode               : Constant
    Bit rate                    : 640 kb/s
    Channel(s)                  : 6 channels
    Channel layout              : L R C LFE Ls Rs
    Sampling rate               : 48.0 kHz
    Frame rate                  : 31.250 FPS (1536 SPF)
    Compression mode            : Lossy
    Stream size                 : 707 MiB (1%)
    Title                       : AC3 5.1 Bluray 4k
    Language                    : Spanish
    Service kind                : Complete Main
    Default                     : Yes
    Forced                      : No

    Audio #2
    ID                          : 3
    Format                      : DTS
    Format/Info                 : Digital Theater Systems
    Codec ID                    : A_DTS
    Duration                    : 2 h 34 min
    Bit rate mode               : Constant
    Bit rate                    : 1 510 kb/s
    Channel(s)                  : 6 channels
    Channel layout              : C L R Ls Rs LFE
    Sampling rate               : 48.0 kHz
    Frame rate                  : 93.750 FPS (512 SPF)
    Bit depth                   : 24 bits
    Compression mode            : Lossy
    Stream size                 : 1.63 GiB (3%)
    Title                       : DTS 5.1 Bluray
    Language                    : English
    Default                     : No
    Forced                      : No

    Audio #3
    ID                          : 4
    Format                      : MLP FBA 16-ch
    Format/Info                 : Meridian Lossless Packing FBA with 16-channel presentation
    Commercial name             : Dolby TrueHD with Dolby Atmos
    Codec ID                    : A_TRUEHD
    Duration                    : 2 h 34 min
    Bit rate mode               : Variable
    Bit rate                    : 4 388 kb/s
    Maximum bit rate            : 6 510 kb/s
    Channel(s)                  : 8 channels
    Channel layout              : L R C LFE Ls Rs Lb Rb
    Sampling rate               : 48.0 kHz
    Frame rate                  : 1 200.000 FPS (40 SPF)
    Compression mode            : Lossless
    Stream size                 : 4.73 GiB (10%)
    Title                       : TrueHD/Atmos 7.1 Bluray 4k
    Language                    : English
    Default                     : No
    Forced                      : No
    Number of dynamic objects   : 11
    Bed channel count           : 1 channel
    Bed channel configuration   : LFE

    Text #1
    ID                          : 5
    Format                      : PGS
    Muxing mode                 : zlib
    Codec ID                    : S_HDMV/PGS
    Codec ID/Info               : Picture based subtitle format used on BDs/HD-DVDs
    Duration                    : 22 min 22 s
    Bit rate                    : 1 260 b/s
    Count of elements           : 16
    Stream size                 : 207 KiB (0%)
    Title                       : PGS-Forzados
    Language                    : Spanish
    Default                     : No
    Forced                      : No

    Text #2
    ID                          : 6
    Format                      : PGS
    Muxing mode                 : zlib
    Codec ID                    : S_HDMV/PGS
    Codec ID/Info               : Picture based subtitle format used on BDs/HD-DVDs
    Duration                    : 2 h 25 min
    Bit rate                    : 36.7 kb/s
    Count of elements           : 3676
    Stream size                 : 38.3 MiB (0%)
    Title                       : PGS-Completos
    Language                    : Spanish
    Default                     : No
    Forced                      : No

    Text #3
    ID                          : 7
    Format                      : UTF-8
    Codec ID                    : S_TEXT/UTF8
    Codec ID/Info               : UTF-8 Plain Text
    Duration                    : 2 h 25 min
    Bit rate                    : 58 b/s
    Count of elements           : 1838
    Stream size                 : 62.5 KiB (0%)
    Title                       : SRT-Completos
    Language                    : Spanish
    Default                     : No
    Forced                      : No

    Text #4
    ID                          : 8
    Format                      : UTF-8
    Codec ID                    : S_TEXT/UTF8
    Codec ID/Info               : UTF-8 Plain Text
    Duration                    : 22 min 22 s
    Bit rate                    : 1 b/s
    Count of elements           : 8
    Stream size                 : 277 Bytes (0%)
    Title                       : SRT-Forzados
    Language                    : Spanish
    Default                     : Yes
    Forced                      : No

    Menu
    00:00:00.000                : en:00:00:00.000
    00:08:52.574                : en:00:08:52.574
    00:14:26.616                : en:00:14:26.616
    00:20:20.928                : en:00:20:20.928
    00:28:48.143                : en:00:28:48.143
    00:36:18.635                : en:00:36:18.635
    00:45:18.549                : en:00:45:18.549
    00:51:53.027                : en:00:51:53.027
    00:56:34.224                : en:00:56:34.224
    01:04:13.308                : en:01:04:13.308
    01:12:56.706                : en:01:12:56.706
    01:19:09.078                : en:01:19:09.078
    01:23:41.391                : en:01:23:41.391
    01:28:44.819                : en:01:28:44.819
    01:35:13.082                : en:01:35:13.082
    01:42:44.158                : en:01:42:44.158
    01:49:12.337                : en:01:49:12.337
    01:56:42.913                : en:01:56:42.913
    02:04:59.117                : en:02:04:59.117
    02:11:29.590                : en:02:11:29.590
    02:19:10.884                : en:02:19:10.884
    02:25:37.520                : en:02:25:37.520

  • Peso: 48.1 GiB

Sinopsis

En esta tercera entrega de la saga Transformers, los Autobots y los Decepticons se ven envueltos en una peligrosa carrera espacial en la Tierra entre los EE.UU. y Rusia, donde un acontecimiento amenaza con provocar una guerra tan grande que ni los propios transformers puede que sean capaces de salvar nuestro planeta. Y una vez más, como casi siempre, Sam Witwicky se encuentra involuntariamente en medio del conflicto.

 

Latino: AC3 5.1  –  Ingles: TrueHD 7.1 + DTS 5.1

Ficha técnica

Video trailer de la película

Enlaces de descarga

Rip de Bluray

Descargar Transformers El lado oscuro de la Luna (2011) 4K HDR Latino – CMHDD




Aportes de DPeliculasHDmega la pass es:dpeliculashdmega.org Aportes de CinemaniaHD la pass es:cinemaniahdd.com

Películas relacionadas

  • La Familia De Pie Grande (2020) HD 1080p Latino

    La Familia De Pie Grande (2020) HD 1080p Latino

    2020
    La Familia De Pie Grande (2020) HD 1080p Latino

    0.0 1h 36m 2020

    Descargar La Familia De Pie Grande (2020) HD 1080p Latino. Bigfoot, el padre de Adam, quiere utilizar...

    Director: Jérémie Degruson

    Género: Animación

    Actores: Xavier Fagnon

  • La Familia De Pie Grande (2020) REMUX 1080p Latino

    La Familia De Pie Grande (2020) REMUX 1080p Latino

    2020
    La Familia De Pie Grande (2020) REMUX 1080p Latino

    0.0 1h 36m 2020

    Descargar La Familia De Pie Grande (2020) REMUX 1080p Latino. Bigfoot, el padre de Adam, quiere utilizar...

    Director: Jérémie Degruson

    Género: Animación

    Actores: Xavier Fagnon

  • Pelea De Chicas (2020) HD 1080p Latino

    Pelea De Chicas (2020) HD 1080p Latino

    2021
    Pelea De Chicas (2020) HD 1080p Latino

    0.0 1h 38m 2021

    Descargar Pelea De Chicas (2020) HD 1080p Latino. Cuando Anna Wyncomb descubre un club de lucha underground...

    Director: S. B. Weathersby

    Género: Acción

    Actores: Yetta Gottesman

  • Pelea De Chicas (2020) PLACEBO Full HD 1080p Latino

    Pelea De Chicas (2020) PLACEBO Full HD 1080p Latino

    2021
    Pelea De Chicas (2020) PLACEBO Full HD 1080p Latino

    0.0 1h 38m 2021

    Descargar Pelea De Chicas (2020) PLACEBO Full HD 1080p Latino. Cuando Anna Wyncomb descubre un club de...

    Director: S. B. Weathersby

    Género: Acción

    Actores: Yetta Gottesman

Transformers El lado oscuro de la Luna (2011) 4K HDR Latino – CMHDD pelicula full hd, Transformers El lado oscuro de la Luna (2011) 4K HDR Latino – CMHDD mega latino, Transformers El lado oscuro de la Luna (2011) 4K HDR Latino – CMHDD 4k latino, Transformers El lado oscuro de la Luna (2011) 4K HDR Latino – CMHDD pelicula completa, Transformers El lado oscuro de la Luna (2011) 4K HDR Latino – CMHDD descargar gratis, descargar Transformers El lado oscuro de la Luna (2011) 4K HDR Latino – CMHDD pelicula latino, Transformers El lado oscuro de la Luna (2011) 4K HDR Latino – CMHDD 1 link mega, Transformers El lado oscuro de la Luna (2011) 4K HDR Latino – CMHDD 1 link google drive, Transformers El lado oscuro de la Luna (2011) 4K HDR Latino – CMHDD hd 1080p latino.
Comentarios 0