Transformers (2007) 4K HDR Latino – CMHDD

277 vistas
1 estrella2 estrellas3 estrellas4 estrellas5 estrellas (Ninguna valoración todavía)
Cargando...

Información de Transformers (2007) 4K HDR Latino – CMHDD

Datos de la película

  • Calidad: 4K HDR
  • Audio: Se especifica abajo de la Sinopsis
  • Subtitulos: Español Latino SRT- FORZADOS SRT
  • Resolución: 3840x1600p
  • Formato: MKV
  • Codec: HEVC
  • Encoder: Dracarys
  • Mediainfo: Clic para Mostrar Datos Ver
  • Format                      : Matroska
    Format version              : Version 4
    File size                   : 49.9 GiB
    Duration                    : 2 h 23 min
    Overall bit rate mode       : Variable
    Overall bit rate            : 49.8 Mb/s
    Movie name                  : Transformers (2007) 4K HDR 1080p Latino – CMHDD
    Encoded date                : UTC 2020-07-22 22:22:56
    Writing application         : mkvmerge v46.0.0 ('No Deeper Escape') 64-bit
    Writing library             : libebml v1.3.10 + libmatroska v1.5.2

    Video
    ID                          : 1
    Format                      : HEVC
    Format/Info                 : High Efficiency Video Coding
    Format profile              : Main 10@L5.1@High
    HDR format                  : SMPTE ST 2086, HDR10 compatible
    Codec ID                    : V_MPEGH/ISO/HEVC
    Duration                    : 2 h 23 min
    Bit rate                    : 43.5 Mb/s
    Width                       : 3 840 pixels
    Height                      : 1 600 pixels
    Display aspect ratio        : 2.40:1
    Frame rate mode             : Constant
    Frame rate                  : 23.976 (24000/1001) FPS
    Color space                 : YUV
    Chroma subsampling          : 4:2:0 (Type 2)
    Bit depth                   : 10 bits
    Bits/(Pixel*Frame)          : 0.295
    Stream size                 : 43.5 GiB (87%)
    Writing library             : x265 2.6+4-f7498acb3874:[Windows][GCC 7.2.0][64 bit] 10bit
    Encoding settings           : cpuid=1173503 / frame-threads=4 / numa-pools=16 / wpp / no-pmode / no-pme / no-psnr / no-ssim / log-level=2 / input-csp=1 / input-res=3840x1600 / interlace=0 / total-frames=206370 / level-idc=51 / high-tier=1 / uhd-bd=0 / ref=4 / no-allow-non-conformance / repeat-headers / annexb / aud / hrd / info / hash=0 / no-temporal-layers / no-open-gop / min-keyint=24 / keyint=240 / bframes=4 / b-adapt=2 / b-pyramid / bframe-bias=0 / rc-lookahead=25 / lookahead-slices=4 / scenecut=40 / no-intra-refresh / ctu=64 / min-cu-size=8 / rect / no-amp / max-tu-size=32 / tu-inter-depth=1 / tu-intra-depth=1 / limit-tu=0 / rdoq-level=2 / dynamic-rd=0.00 / no-ssim-rd / signhide / no-tskip / nr-intra=0 / nr-inter=0 / no-constrained-intra / no-strong-intra-smoothing / max-merge=3 / limit-refs=3 / limit-modes / me=3 / subme=3 / merange=57 / temporal-mvp / weightp / no-weightb / no-analyze-src-pics / deblock=-3:-3 / no-sao / no-sao-non-deblock / rd=4 / no-early-skip / rskip / no-fast-intra / no-tskip-fast / no-cu-lossless / no-b-intra / no-splitrd-skip / rdpenalty=0 / psy-rd=2.00 / psy-rdoq=1.00 / no-rd-refine / analysis-reuse-mode=0 / no-lossless / cbqpoffs=0 / crqpoffs=0 / rc=crf / crf=17.0 / qcomp=0.60 / qpstep=4 / stats-write=0 / stats-read=0 / vbv-maxrate=160000 / vbv-bufsize=160000 / vbv-init=0.9 / crf-max=0.0 / crf-min=0.0 / ipratio=1.40 / pbratio=1.30 / aq-mode=1 / aq-strength=1.00 / cutree / zone-count=0 / no-strict-cbr / qg-size=32 / no-rc-grain / qpmax=69 / qpmin=0 / no-const-vbv / sar=1 / overscan=0 / videoformat=5 / range=0 / colorprim=9 / transfer=16 / colormatrix=9 / chromaloc=1 / chromaloc-top=2 / chromaloc-bottom=2 / display-window=0 / master-display=G(13250,34500)B(7500,3000)R(34000,16000)WP(15635,16450)L(10000000,1) / max-cll=0,0 / min-luma=0 / max-luma=1023 / log2-max-poc-lsb=8 / vui-timing-info / vui-hrd-info / slices=1 / opt-qp-pps / opt-ref-list-length-pps / no-multi-pass-opt-rps / scenecut-bias=0.05 / no-opt-cu-delta-qp / no-aq-motion / hdr / hdr-opt / no-dhdr10-opt / analysis-reuse-level=5 / scale-factor=0 / refine-intra=0 / refine-inter=0 / refine-mv=0 / no-limit-sao / ctu-info=0 / no-lowpass-dct / refine-mv-type=0 / copy-pic=1
    Language                    : English
    Default                     : Yes
    Forced                      : No
    Color range                 : Limited
    Color primaries             : BT.2020
    Transfer characteristics    : PQ
    Matrix coefficients         : BT.2020 non-constant
    Mastering display color pri : Display P3
    Mastering display luminance : min: 0.0001 cd/m2, max: 1000 cd/m2

    Audio #1
    ID                          : 2
    Format                      : AC-3
    Format/Info                 : Audio Coding 3
    Commercial name             : Dolby Digital
    Codec ID                    : A_AC3
    Duration                    : 2 h 23 min
    Bit rate mode               : Constant
    Bit rate                    : 640 kb/s
    Channel(s)                  : 6 channels
    Channel layout              : L R C LFE Ls Rs
    Sampling rate               : 48.0 kHz
    Frame rate                  : 31.250 FPS (1536 SPF)
    Compression mode            : Lossy
    Stream size                 : 657 MiB (1%)
    Title                       : AC3 5.1 Bluray 4k
    Language                    : Spanish
    Service kind                : Complete Main
    Default                     : Yes
    Forced                      : No

    Audio #2
    ID                          : 3
    Format                      : MLP FBA 16-ch
    Format/Info                 : Meridian Lossless Packing FBA with 16-channel presentation
    Commercial name             : Dolby TrueHD with Dolby Atmos
    Codec ID                    : A_TRUEHD
    Duration                    : 2 h 23 min
    Bit rate mode               : Variable
    Bit rate                    : 4 077 kb/s
    Maximum bit rate            : 6 768 kb/s
    Channel(s)                  : 8 channels
    Channel layout              : L R C LFE Ls Rs Lb Rb
    Sampling rate               : 48.0 kHz
    Frame rate                  : 1 200.000 FPS (40 SPF)
    Compression mode            : Lossless
    Stream size                 : 4.09 GiB (8%)
    Title                       : TrueHD/Atmos 7.1 Bluray 4k
    Language                    : English
    Default                     : No
    Forced                      : No
    Number of dynamic objects   : 11
    Bed channel count           : 1 channel
    Bed channel configuration   : LFE

    Audio #3
    ID                          : 4
    Format                      : DTS
    Format/Info                 : Digital Theater Systems
    Codec ID                    : A_DTS
    Duration                    : 2 h 23 min
    Bit rate mode               : Constant
    Bit rate                    : 1 510 kb/s
    Channel(s)                  : 6 channels
    Channel layout              : C L R Ls Rs LFE
    Sampling rate               : 48.0 kHz
    Frame rate                  : 93.750 FPS (512 SPF)
    Bit depth                   : 24 bits
    Compression mode            : Lossy
    Stream size                 : 1.51 GiB (3%)
    Title                       : DTS 5.1 Bluray 4K
    Language                    : English
    Default                     : No
    Forced                      : No

    Text #1
    ID                          : 5
    Format                      : UTF-8
    Codec ID                    : S_TEXT/UTF8
    Codec ID/Info               : UTF-8 Plain Text
    Duration                    : 2 h 15 min
    Bit rate                    : 53 b/s
    Count of elements           : 1702
    Stream size                 : 53.4 KiB (0%)
    Title                       : SRT-Completos
    Language                    : Spanish
    Default                     : No
    Forced                      : No

    Text #2
    ID                          : 6
    Format                      : UTF-8
    Codec ID                    : S_TEXT/UTF8
    Codec ID/Info               : UTF-8 Plain Text
    Duration                    : 1 h 37 min
    Bit rate                    : 0 b/s
    Count of elements           : 18
    Stream size                 : 534 Bytes (0%)
    Title                       : SRT-Forzados
    Language                    : Spanish
    Default                     : Yes
    Forced                      : No

    Text #3
    ID                          : 7
    Format                      : PGS
    Muxing mode                 : zlib
    Codec ID                    : S_HDMV/PGS
    Codec ID/Info               : Picture based subtitle format used on BDs/HD-DVDs
    Duration                    : 1 h 37 min
    Bit rate                    : 586 b/s
    Count of elements           : 36
    Stream size                 : 419 KiB (0%)
    Title                       : PGS-Forzados
    Language                    : Spanish
    Default                     : No
    Forced                      : No

    Text #4
    ID                          : 8
    Format                      : PGS
    Muxing mode                 : zlib
    Codec ID                    : S_HDMV/PGS
    Codec ID/Info               : Picture based subtitle format used on BDs/HD-DVDs
    Duration                    : 2 h 15 min
    Bit rate                    : 34.0 kb/s
    Count of elements           : 3404
    Stream size                 : 32.9 MiB (0%)
    Title                       : PGS-Completos
    Language                    : Spanish
    Default                     : No
    Forced                      : No

    Menu
    00:00:00.000                : en:00:00:00.000
    00:02:04.207                : en:00:02:04.207
    00:08:54.033                : en:00:08:54.033
    00:15:33.141                : en:00:15:33.141
    00:22:20.881                : en:00:22:20.881
    00:27:42.160                : en:00:27:42.160
    00:33:24.878                : en:00:33:24.878
    00:38:57.502                : en:00:38:57.502
    00:45:13.419                : en:00:45:13.419
    00:51:45.936                : en:00:51:45.936
    00:58:44.187                : en:00:58:44.187
    01:06:47.921                : en:01:06:47.921
    01:11:53.059                : en:01:11:53.059
    01:16:55.945                : en:01:16:55.945
    01:23:36.845                : en:01:23:36.845
    01:29:03.672                : en:01:29:03.672
    01:36:28.241                : en:01:36:28.241
    01:43:57.606                : en:01:43:57.606
    01:49:45.245                : en:01:49:45.245
    01:56:53.506                : en:01:56:53.506
    02:03:09.382                : en:02:03:09.382
    02:10:43.419                : en:02:10:43.419
    02:15:01.802                : en:02:15:01.802

  • Peso: 49.9 GiB

Sinopsis

Dos razas de robots extraterrestres transformables (los villanos «decepticons» y los amistosos «autobots») llegan a la Tierra en busca de una misteriosa fuente de poder. En la guerra que estalla entre las dos razas, los hombres toman partido por los «autobots». Sam Witwicky (Shia LaBeouf), un avispado adolescente, que sólo desea conquistar a la bella Mikaela (Megan Fox), se convierte en la clave de una guerra que puede destruir a la humanidad.

 

 

Latino: AC3 5.1  –  Ingles: TrueHD 7.1 + DTS 5.1

Ficha técnica

Video trailer de la película

Enlaces de descarga

Rip de Bluray

Descargar Transformers (2007) 4K HDR Latino – CMHDD




Aportes de DPeliculasHDmega la pass es:dpeliculashdmega.org Aportes de CinemaniaHD la pass es:cinemaniahdd.com

Películas relacionadas

  • La Familia De Pie Grande (2020) HD 1080p Latino

    La Familia De Pie Grande (2020) HD 1080p Latino

    2020
    La Familia De Pie Grande (2020) HD 1080p Latino

    0.0 1h 36m 2020

    Descargar La Familia De Pie Grande (2020) HD 1080p Latino. Bigfoot, el padre de Adam, quiere utilizar...

    Director: Jérémie Degruson

    Género: Animación

    Actores: Xavier Fagnon

  • La Familia De Pie Grande (2020) REMUX 1080p Latino

    La Familia De Pie Grande (2020) REMUX 1080p Latino

    2020
    La Familia De Pie Grande (2020) REMUX 1080p Latino

    0.0 1h 36m 2020

    Descargar La Familia De Pie Grande (2020) REMUX 1080p Latino. Bigfoot, el padre de Adam, quiere utilizar...

    Director: Jérémie Degruson

    Género: Animación

    Actores: Xavier Fagnon

  • Pelea De Chicas (2020) HD 1080p Latino

    Pelea De Chicas (2020) HD 1080p Latino

    2021
    Pelea De Chicas (2020) HD 1080p Latino

    0.0 1h 38m 2021

    Descargar Pelea De Chicas (2020) HD 1080p Latino. Cuando Anna Wyncomb descubre un club de lucha underground...

    Director: S. B. Weathersby

    Género: Acción

    Actores: Yetta Gottesman

  • Pelea De Chicas (2020) PLACEBO Full HD 1080p Latino

    Pelea De Chicas (2020) PLACEBO Full HD 1080p Latino

    2021
    Pelea De Chicas (2020) PLACEBO Full HD 1080p Latino

    0.0 1h 38m 2021

    Descargar Pelea De Chicas (2020) PLACEBO Full HD 1080p Latino. Cuando Anna Wyncomb descubre un club de...

    Director: S. B. Weathersby

    Género: Acción

    Actores: Yetta Gottesman

Transformers (2007) 4K HDR Latino – CMHDD pelicula full hd, Transformers (2007) 4K HDR Latino – CMHDD mega latino, Transformers (2007) 4K HDR Latino – CMHDD 4k latino, Transformers (2007) 4K HDR Latino – CMHDD pelicula completa, Transformers (2007) 4K HDR Latino – CMHDD descargar gratis, descargar Transformers (2007) 4K HDR Latino – CMHDD pelicula latino, Transformers (2007) 4K HDR Latino – CMHDD 1 link mega, Transformers (2007) 4K HDR Latino – CMHDD 1 link google drive, Transformers (2007) 4K HDR Latino – CMHDD hd 1080p latino.
Comentarios 4
  • ronald - 09 agosto, 2020

    no da la contraseña

    • Dracarys - 09 agosto, 2020

      no esta con contraseña

  • Jose - 23 julio, 2020

    Hola son remux ?, lo digo por el peso de la pelicula

    • Dracarys - 23 julio, 2020

      Hola NO, Son BDRip