Thoroughbreds (2017) Full 1080p Latino

1.110 vistas
1 estrella2 estrellas3 estrellas4 estrellas5 estrellas (2 votos, promedio: 2,50 de 5)
Cargando…

Información de Thoroughbreds (2017) Full 1080p Latino

Datos de la película

  • Calidad: Full 1080p
  • Audio: Español Latino DTS 5.1 BLURAY - Ingles DTS 5.1 BLURAY
  • Subtitulos: Español Latino PGS - Ingles PGS
  • Resolución: 1920x1080p
  • Formato: MKV
  • Codec: H.264
  • Encoder: Dracarys
  • Mediainfo: Clic para Mostrar Datos Ver
  • Format                                   : Matroska
    Format version                           : Version 4 / Version 2
    File size                                : 3.12 GiB
    Duration                                 : 1 h 32 min
    Overall bit rate                         : 4 851 kb/s
    Movie name                               : CinemaniaHDD.net
    Encoded date                             : UTC 2018-06-06 04:39:58 / UTC 2018-06-06T00:30:42Z
    Writing application                      : mkvmerge v15.0.0 ('Duel with the Devil') 64-bit
    Writing library                          : libebml v1.3.5 + libmatroska v1.4.5 / Lavf57.7.2

    Video
    ID                                       : 1
    Format                                   : AVC
    Format/Info                              : Advanced Video Codec
    Format profile                           : High@L4.1
    Format settings                          : CABAC / 4 Ref Frames
    Format settings, CABAC                   : Yes
    Format settings, RefFrames               : 4 frames
    Codec ID                                 : V_MPEG4/ISO/AVC
    Duration                                 : 1 h 32 min
    Bit rate                                 : 1 838 kb/s
    Width                                    : 1 920 pixels
    Height                                   : 1 080 pixels
    Display aspect ratio                     : 16:9
    Frame rate mode                          : Constant
    Frame rate                               : 23.976 (24000/1001) FPS
    Color space                              : YUV
    Chroma subsampling                       : 4:2:0
    Bit depth                                : 8 bits
    Scan type                                : Progressive
    Bits/(Pixel*Frame)                       : 0.037
    Stream size                              : 1.18 GiB (38%)
    Title                                    : Thoroughbreds (2017) Full 1080p Latino
    Writing library                          : x264 core 148 r2708 86b7198
    Encoding settings                        : cabac=1 / ref=4 / deblock=1:0:0 / analyse=0x3:0x133 / me=esa / subme=9 / psy=1 / psy_rd=1.00:0.00 / mixed_ref=1 / me_range=16 / chroma_me=1 / trellis=2 / 8x8dct=1 / cqm=0 / deadzone=21,11 / fast_pskip=1 / chroma_qp_offset=-2 / threads=34 / lookahead_threads=2 / sliced_threads=0 / nr=0 / decimate=1 / interlaced=0 / bluray_compat=0 / constrained_intra=0 / bframes=3 / b_pyramid=2 / b_adapt=2 / b_bias=0 / direct=3 / weightb=1 / open_gop=0 / weightp=2 / keyint=240 / keyint_min=24 / scenecut=40 / intra_refresh=0 / rc_lookahead=60 / rc=crf / mbtree=1 / crf=20.0 / qcomp=0.60 / qpmin=0 / qpmax=69 / qpstep=4 / vbv_maxrate=62500 / vbv_bufsize=78125 / crf_max=0.0 / nal_hrd=none / filler=0 / ip_ratio=1.40 / aq=1:1.00
    Language                                 : English
    Default                                  : Yes
    Forced                                   : No
    Color range                              : Limited
    Color primaries                          : BT.709
    Transfer characteristics                 : BT.709
    Matrix coefficients                      : BT.709
    Statistics Tags Issue                    : mkvmerge v15.0.0 ('Duel with the Devil') 64-bit 2018-06-06 04:39:58 / mkvmerge v15.0.0 ('Duel with the Devil') 64-bit 2018-06-06 04:39:58 / UTC 2018-06-06T00:30:42Z
    FromStats_BitRate                        : 1914120
    FromStats_Duration                       : 01:32:04.102000000
    FromStats_FrameCount                     : 132446
    FromStats_StreamSize                     : 1321724673

    Audio #1
    ID                                       : 2
    Format                                   : DTS
    Format/Info                              : Digital Theater Systems
    Mode                                     : 16
    Format settings, Endianness              : Big
    Codec ID                                 : A_DTS
    Duration                                 : 1 h 32 min
    Bit rate mode                            : Constant
    Bit rate                                 : 768 kb/s
    Channel(s)                               : 6 channels
    Channel positions                        : Front: L C R, Side: L R, LFE
    Sampling rate                            : 48.0 kHz
    Frame rate                               : 93.750 FPS (512 SPF)
    Bit depth                                : 24 bits
    Compression mode                         : Lossy
    Stream size                              : 506 MiB (16%)
    Title                                    : DTS Latino
    Language                                 : Spanish
    Default                                  : Yes
    Forced                                   : No
    Statistics Tags Issue                    : mkvmerge v15.0.0 ('Duel with the Devil') 64-bit 2018-06-06 04:39:58 / mkvmerge v15.0.0 ('Duel with the Devil') 64-bit 2018-06-06 04:39:58 / UTC 2018-06-06T00:30:42Z
    FromStats_BitRate                        : 767999
    FromStats_Duration                       : 01:32:04.139000000
    FromStats_FrameCount                     : 517888
    FromStats_StreamSize                     : 530317312

    Audio #2
    ID                                       : 3
    Format                                   : AC-3
    Format/Info                              : Audio Coding 3
    Format settings, Endianness              : Big
    Codec ID                                 : A_AC3
    Duration                                 : 1 h 32 min
    Bit rate mode                            : Constant
    Bit rate                                 : 640 kb/s
    Channel(s)                               : 6 channels
    Channel positions                        : Front: L C R, Side: L R, LFE
    Sampling rate                            : 48.0 kHz
    Frame rate                               : 31.250 FPS (1536 SPF)
    Bit depth                                : 16 bits
    Compression mode                         : Lossy
    Delay relative to video                  : -5 ms
    Stream size                              : 421 MiB (13%)
    Title                                    : AC3 Latino
    Language                                 : Spanish
    Service kind                             : Complete Main
    Default                                  : No
    Forced                                   : No
    Statistics Tags Issue                    : mkvmerge v15.0.0 ('Duel with the Devil') 64-bit 2018-06-06 04:39:58 / mkvmerge v15.0.0 ('Duel with the Devil') 64-bit 2018-06-06 04:39:58 / UTC 2018-06-06T00:30:42Z
    FromStats_BitRate                        : 640000
    FromStats_Duration                       : 01:32:04.128000000
    FromStats_FrameCount                     : 172629
    FromStats_StreamSize                     : 441930240

    Audio #3
    ID                                       : 4
    Format                                   : DTS
    Format/Info                              : Digital Theater Systems
    Mode                                     : 16
    Format settings, Endianness              : Big
    Codec ID                                 : A_DTS
    Duration                                 : 1 h 32 min
    Bit rate mode                            : Constant
    Bit rate                                 : 1 509 kb/s
    Channel(s)                               : 6 channels
    Channel positions                        : Front: L C R, Side: L R, LFE
    Sampling rate                            : 48.0 kHz
    Frame rate                               : 93.750 FPS (512 SPF)
    Bit depth                                : 24 bits
    Compression mode                         : Lossy
    Stream size                              : 994 MiB (31%)
    Title                                    : DTS Ingles
    Language                                 : English
    Default                                  : No
    Forced                                   : No
    Statistics Tags Issue                    : mkvmerge v15.0.0 ('Duel with the Devil') 64-bit 2018-06-06 04:39:58 / mkvmerge v15.0.0 ('Duel with the Devil') 64-bit 2018-06-06 04:39:58 / UTC 2018-06-06T00:30:42Z
    FromStats_BitRate                        : 1508999
    FromStats_Duration                       : 01:32:04.139000000
    FromStats_FrameCount                     : 517888
    FromStats_StreamSize                     : 1041990656

    Text #1
    ID                                       : 5
    Format                                   : PGS
    Muxing mode                              : zlib
    Codec ID                                 : S_HDMV/PGS
    Codec ID/Info                            : Picture based subtitle format used on BDs/HD-DVDs
    Language                                 : English
    Default                                  : No
    Forced                                   : No
    Statistics Tags Issue                    : mkvmerge v15.0.0 ('Duel with the Devil') 64-bit 2018-06-06 04:39:58 / mkvmerge v15.0.0 ('Duel with the Devil') 64-bit 2018-06-06 04:39:58 / UTC 2018-06-06T00:30:42Z
    FromStats_BitRate                        : 34201
    FromStats_Duration                       : 01:26:08.163000000
    FromStats_FrameCount                     : 1941
    FromStats_StreamSize                     : 22095102

    Text #2
    ID                                       : 6
    Format                                   : PGS
    Muxing mode                              : zlib
    Codec ID                                 : S_HDMV/PGS
    Codec ID/Info                            : Picture based subtitle format used on BDs/HD-DVDs
    Language                                 : Spanish
    Default                                  : No
    Forced                                   : No
    Statistics Tags Issue                    : mkvmerge v15.0.0 ('Duel with the Devil') 64-bit 2018-06-06 04:39:58 / mkvmerge v15.0.0 ('Duel with the Devil') 64-bit 2018-06-06 04:39:58 / UTC 2018-06-06T00:30:42Z
    FromStats_BitRate                        : 25571
    FromStats_Duration                       : 01:29:28.071000000
    FromStats_FrameCount                     : 1769
    FromStats_StreamSize                     : 17158374

    Menu
    00:00:00.000                             : :Chapter 1
    00:05:34.125                             : :Chapter 2
    00:10:22.789                             : :Chapter 3
    00:16:01.335                             : :Chapter 4
    00:21:39.548                             : :Chapter 5
    00:24:58.122                             : :Chapter 6
    00:27:04.915                             : :Chapter 7
    00:29:56.586                             : :Chapter 8
    00:34:05.794                             : :Chapter 9
    00:39:16.271                             : :Chapter 10
    00:44:33.671                             : :Chapter 11
    00:48:59.728                             : :Chapter 12
    00:52:28.228                             : :Chapter 13
    00:58:50.360                             : :Chapter 14
    01:01:30.228                             : :Chapter 15
    01:05:48.445                             : :Chapter 16
    01:11:20.902                             : :Chapter 17
    01:17:56.839                             : :Chapter 18
    01:21:46.944                             : :Chapter 19
    01:26:36.149                             : :Chapter 20

  • Peso: 3.12 GiB

Sinopsis

Dos chicas adolescentes de Connecticut reavivan su amistad después de años separadas. En el proceso, aprenden que no todo es lo que parece y que un asesinato solucionaría sus problemas.

Ficha técnica

Video trailer de la película

Enlaces de descarga

Rip de Bluray

Descargar Thoroughbreds (2017) Full 1080p Latino




Aportes de DPeliculasHDmega la pass es:dpeliculashdmega.org Aportes de CinemaniaHD la pass es:cinemaniahdd.com

Películas relacionadas

  • Godzilla (2014) 1080p Latino

    2014
    Godzilla (2014) 1080p Latino

    0.0 2h 3m 2014

    Descargar Godzilla (2014) 1080p Latino, Mega, Google Drive, Torrent. Gareth Edwards dirige este "reboot",...

    Director: Jessica Clothier

    Género: Acción

    Actores: Yuki Morita

  • Godzilla (2014) Full 1080p Latino

    2014
    Godzilla (2014) Full 1080p Latino

    4.2 2h 3m 2014

    Descargar Godzilla (2014) Full 1080p Latino, Mega, Google Drive, Torrent. Gareth Edwards dirige este...

    Director: Jessica Clothier

    Género: Acción

    Actores: Yuki Morita

  • Un pequeño favor (2018) Full 1080p Latino

    2018
    Un pequeño favor (2018) Full 1080p Latino

    5.0 1h 57m 2018

    Descargar Un pequeño favor (2018) Full 1080p Latino, Mega, Google Drive, Torrent. Stephanie es una joven...

    Director: Paul Feig

    Género: Crimen

    Actores: Zach Smadu

Comentarios 0