×

¿Problemas para descargar con Mozilla, EDGE? Deshabilita la opción "Abrir vinculos en una pestaña nueva" tal como lo muestra ésta imagen.

The Punisher (2019) Temporada 2 NF 1080p Latino

2.257 vistas

Información de The Punisher (2019) Temporada 2 NF 1080p Latino

Datos de la película

  • Calidad: WEBDL
  • Audio: Español Latino AC3 5.1 Netflix - Ingles AC3 5.1 Netflix
  • Subtitulos: Español Latino SRT - Ingles SRT
  • Resolución: 1920x1080p
  • Formato: MKV
  • Codec: H.264
  • Encoder: CinemaniaHD
  • Mediainfo: Clic para Mostrar Datos Ver
  • Marvel - The Punisher S02E01 (2019) NF 1080p Latino.mkv
    Format                      : Matroska
    Format version              : Version 4
    File size                   : 1.56 GiB
    Duration                    : 53 min 9 s
    Overall bit rate mode       : Variable
    Overall bit rate            : 4 206 kb/s
    Movie name                  : CinemaniaHDD.net
    Encoded date                : UTC 2019-01-18 09:42:16
    Writing application         : mkvmerge v30.1.0 ('Forever And More') 64-bit
    Writing library             : libebml v1.3.6 + libmatroska v1.4.9

    Video
    ID                          : 1
    Format                      : AVC
    Format/Info                 : Advanced Video Codec
    Format profile              : Main@L4
    Format settings             : CABAC / 3 Ref Frames
    Format settings, CABAC      : Yes
    Format settings, ReFrames   : 3 frames
    Codec ID                    : V_MPEG4/ISO/AVC
    Duration                    : 53 min 9 s
    Bit rate mode               : Variable
    Bit rate                    : 3 480 kb/s
    Maximum bit rate            : 5 220 kb/s
    Width                       : 1 920 pixels
    Height                      : 1 080 pixels
    Display aspect ratio        : 16:9
    Frame rate mode             : Constant
    Frame rate                  : 23.976 (24000/1001) FPS
    Color space                 : YUV
    Chroma subsampling          : 4:2:0
    Bit depth                   : 8 bits
    Scan type                   : Progressive
    Bits/(Pixel*Frame)          : 0.070
    Stream size                 : 1.25 GiB (80%)
    Title                       : cinemaniahdd
    Writing library             : x264 core 148 r2715 7e75228
    Encoding settings           : cabac=1 / ref=3 / deblock=1:0:0 / analyse=0x1:0x111 / me=umh / subme=10 / psy=1 / psy_rd=1.00:0.00 / mixed_ref=1 / me_range=24 / chroma_me=1 / trellis=2 / 8x8dct=0 / cqm=0 / deadzone=21,11 / fast_pskip=1 / chroma_qp_offset=-2 / threads=6 / lookahead_threads=1 / sliced_threads=0 / nr=0 / decimate=1 / interlaced=0 / bluray_compat=0 / stitchable=1 / constrained_intra=0 / bframes=2 / b_pyramid=0 / b_adapt=2 / b_bias=0 / direct=3 / weightb=1 / open_gop=0 / weightp=2 / keyint=48 / keyint_min=25 / scenecut=0 / intra_refresh=0 / rc_lookahead=48 / rc=2pass / mbtree=1 / bitrate=3480 / ratetol=1.0 / qcomp=0.50 / qpmin=6 / qpmax=51 / qpstep=4 / cplxblur=20.0 / qblur=0.5 / vbv_maxrate=5220 / vbv_bufsize=6960 / nal_hrd=vbr / filler=0 / ip_ratio=1.40 / aq=1:1.00
    Default                     : Yes
    Forced                      : No

    Audio #1
    ID                          : 2
    Format                      : AC-3
    Format/Info                 : Audio Coding 3
    Commercial name             : Dolby Digital
    Codec ID                    : A_AC3
    Duration                    : 53 min 9 s
    Bit rate mode               : Constant
    Bit rate                    : 384 kb/s
    Channel(s)                  : 6 channels
    Channel layout              : L R C LFE Ls Rs
    Sampling rate               : 48.0 kHz
    Frame rate                  : 31.250 FPS (1536 SPF)
    Bit depth                   : 16 bits
    Compression mode            : Lossy
    Stream size                 : 146 MiB (9%)
    Title                       : Español latino [cinemaniahdd]
    Language                    : Spanish
    Service kind                : Complete Main
    Default                     : Yes
    Forced                      : No

    Audio #2
    ID                          : 3
    Format                      : E-AC-3 JOC
    Format/Info                 : Enhanced AC-3 with Joint Object Coding
    Commercial name             : Dolby Digital Plus with Dolby Atmos
    Codec ID                    : A_EAC3
    Duration                    : 53 min 9 s
    Bit rate mode               : Constant
    Bit rate                    : 448 kb/s
    Channel(s)                  : 6 channels
    Channel layout              : L R C LFE Ls Rs
    Sampling rate               : 48.0 kHz
    Frame rate                  : 31.250 FPS (1536 SPF)
    Compression mode            : Lossy
    Stream size                 : 170 MiB (11%)
    Title                       : Inglés [cinemaniahdd]
    Language                    : English
    Service kind                : Complete Main
    Default                     : No
    Forced                      : No
    Complexity index            : 16
    Number of dynamic objects   : 15
    Bed channel count           : 1 channel
    Bed channel configuration   : LFE

    Text #1
    ID                          : 4
    Format                      : UTF-8
    Codec ID                    : S_TEXT/UTF8
    Codec ID/Info               : UTF-8 Plain Text
    Duration                    : 50 min 50 s
    Bit rate                    : 53 b/s
    Count of elements           : 671
    Stream size                 : 20.0 KiB (0%)
    Title                       : English
    Language                    : English
    Default                     : No
    Forced                      : No

    Text #2
    ID                          : 5
    Format                      : UTF-8
    Codec ID                    : S_TEXT/UTF8
    Codec ID/Info               : UTF-8 Plain Text
    Duration                    : 51 min 8 s
    Bit rate                    : 33 b/s
    Count of elements           : 511
    Stream size                 : 12.6 KiB (0%)
    Title                       : Español latino [cinemaniahdd]
    Language                    : Spanish
    Default                     : No
    Forced                      : No

  • Peso: 1.5 - 2.5 Aprox. c/u

Sinopsis

Por ahora, Netflix no ha revelado el contenido de la temporada 2 de «The Punisher», ya que lo único que se ha publicado en el Twitter oficial de la serie es un pequeño video confirmando la producción de sus capítulos en el 2017.

«Time to reload» es la frase que se lee en la publicación. Esto podría dar pie a que Castle llegará con más fuerza que nunca, dispuesto a todo para cumplir su objetivo luego de haber descansado un poco.

Se ha confirmado la participación de Ben Barnes como Billy Russo (Jigsaw), gracias a las diversas fotografías filtradas en el año sobre la grabación de algunas escenas. Además, también aparecerán personajes como Dinah Madani y Curtis Hoyle, representados por Amber Rose Revah y Jason R. Moore respectivamente.

Ficha técnica

Video trailer de la película

Enlaces de descarga

Rip de Bluray

Descargar The Punisher (2019) Temporada 2 NF 1080p Latino




Aportes de DPeliculasHDmega la pass es:dpeliculashdmega.org Aportes de CinemaniaHD la pass es:cinemaniahdd.com
Guardado en : Action & Adventure , Crimen , Drama , Series

Películas relacionadas

The Punisher (2019) Temporada 2 NF 1080p Latino pelicula full hd, The Punisher (2019) Temporada 2 NF 1080p Latino mega latino, The Punisher (2019) Temporada 2 NF 1080p Latino 4k latino, The Punisher (2019) Temporada 2 NF 1080p Latino pelicula completa, The Punisher (2019) Temporada 2 NF 1080p Latino descargar gratis, descargar The Punisher (2019) Temporada 2 NF 1080p Latino pelicula latino, The Punisher (2019) Temporada 2 NF 1080p Latino 1 link mega, The Punisher (2019) Temporada 2 NF 1080p Latino 1 link google drive, The Punisher (2019) Temporada 2 NF 1080p Latino hd 1080p latino.
Comentarios 0