×

¿Problemas para descargar con Mozilla, EDGE? Deshabilita la opción "Abrir vinculos en una pestaña nueva" tal como lo muestra ésta imagen.

The Matrix Reloaded (2003) REMUX 1080p Latino

1.267 vistas

Información de The Matrix Reloaded (2003) REMUX 1080p Latino

Datos de la película

  • Calidad: Full 1080p
  • Audio: Español Latino AC3 2.0 BLURAY - Ingles AC3 5.1 BLURAY
  • Subtitulos: Español Latino SRT- FORZADOS SRT
  • Resolución: ¨1920x1080p
  • Formato: MKV
  • Codec: H.264
  • Encoder: Dracarys
  • Mediainfo: Clic para Mostrar Datos Ver
  • Format                      : Matroska
    Format version              : Version 4
    File size                   : 16.0 GiB
    Duration                    : 2 h 18 min
    Overall bit rate mode       : Variable
    Overall bit rate            : 16.6 Mb/s
    Movie name                  : CinemaniaHDD.net
    Encoded date                : UTC 2020-01-21 00:35:28
    Writing application         : mkvmerge v38.0.0 ('The Silent Type') 64-bit
    Writing library             : libebml v1.3.9 + libmatroska v1.5.2

    Video
    ID                          : 1
    Format                      : VC-1
    Format profile              : Advanced@L3
    Codec ID                    : V_MS/VFW/FOURCC / WVC1
    Codec ID/Hint               : Microsoft
    Duration                    : 2 h 18 min
    Bit rate                    : 13.9 Mb/s
    Width                       : 1 920 pixels
    Height                      : 1 080 pixels
    Display aspect ratio        : 16:9
    Frame rate mode             : Constant
    Frame rate                  : 23.976 (24000/1001) FPS
    Color space                 : YUV
    Chroma subsampling          : 4:2:0
    Bit depth                   : 8 bits
    Scan type                   : Progressive
    Compression mode            : Lossy
    Bits/(Pixel*Frame)          : 0.279
    Stream size                 : 13.4 GiB (84%)
    Default                     : Yes
    Forced                      : No

    Audio #1
    ID                          : 2
    Format                      : MLP FBA
    Format/Info                 : Meridian Lossless Packing FBA
    Commercial name             : Dolby TrueHD
    Codec ID                    : A_TRUEHD
    Duration                    : 2 h 18 min
    Bit rate mode               : Variable
    Bit rate                    : 1 781 kb/s
    Maximum bit rate            : 3 366 kb/s
    Channel(s)                  : 6 channels
    Channel layout              : L R C LFE Ls Rs
    Sampling rate               : 48.0 kHz
    Frame rate                  : 1 200.000 FPS (40 SPF)
    Compression mode            : Lossless
    Stream size                 : 1.72 GiB (11%)
    Language                    : English
    Default                     : No
    Forced                      : No

    Audio #2
    ID                          : 3
    Format                      : AC-3
    Format/Info                 : Audio Coding 3
    Commercial name             : Dolby Digital
    Codec ID                    : A_AC3
    Duration                    : 2 h 18 min
    Bit rate mode               : Constant
    Bit rate                    : 192 kb/s
    Channel(s)                  : 2 channels
    Channel layout              : L R
    Sampling rate               : 48.0 kHz
    Frame rate                  : 31.250 FPS (1536 SPF)
    Bit depth                   : 16 bits
    Compression mode            : Lossy
    Stream size                 : 190 MiB (1%)
    Language                    : Spanish
    Service kind                : Complete Main
    Default                     : Yes
    Forced                      : No

    Audio #3
    ID                          : 4
    Format                      : AC-3
    Format/Info                 : Audio Coding 3
    Commercial name             : Dolby Digital
    Codec ID                    : A_AC3
    Duration                    : 2 h 18 min
    Bit rate mode               : Constant
    Bit rate                    : 640 kb/s
    Channel(s)                  : 6 channels
    Channel layout              : L R C LFE Ls Rs
    Sampling rate               : 48.0 kHz
    Frame rate                  : 31.250 FPS (1536 SPF)
    Bit depth                   : 16 bits
    Compression mode            : Lossy
    Stream size                 : 633 MiB (4%)
    Language                    : English
    Service kind                : Complete Main
    Default                     : No
    Forced                      : No

    Text #1
    ID                          : 5
    Format                      : VobSub
    Muxing mode                 : zlib
    Codec ID                    : S_VOBSUB
    Codec ID/Info               : Picture based subtitle format used on DVDs
    Duration                    : 2 h 17 min
    Bit rate                    : 6 965 b/s
    Count of elements           : 1190
    Stream size                 : 6.85 MiB (0%)
    Language                    : Spanish
    Default                     : No
    Forced                      : No

    Text #2
    ID                          : 6
    Format                      : UTF-8
    Codec ID                    : S_TEXT/UTF8
    Codec ID/Info               : UTF-8 Plain Text
    Duration                    : 2 h 17 min
    Bit rate                    : 43 b/s
    Count of elements           : 1190
    Stream size                 : 44.3 KiB (0%)
    Language                    : Spanish
    Default                     : No
    Forced                      : No

    Menu
    00:00:00.000                : en:(01)00:00:00:000
    00:03:50.230                : en:(02)00:03:50:230
    00:08:55.368                : en:(03)00:08:55:368
    00:12:16.902                : en:(04)00:12:16:902
    00:16:24.316                : en:(05)00:16:24:316
    00:19:43.182                : en:(06)00:19:43:182
    00:23:29.408                : en:(07)00:23:29:408
    00:27:26.811                : en:(08)00:27:26:811
    00:32:01.252                : en:(09)00:32:01:252
    00:33:43.187                : en:(10)00:33:43:187
    00:37:57.441                : en:(11)00:37:57:441
    00:40:55.619                : en:(12)00:40:55:619
    00:43:44.955                : en:(13)00:43:44:955
    00:50:42.706                : en:(14)00:50:42:706
    00:55:08.471                : en:(15)00:55:08:471
    01:00:03.099                : en:(16)01:00:03:099
    01:02:49.766                : en:(17)01:02:49:766
    01:08:52.294                : en:(18)01:08:52:294
    01:13:06.882                : en:(19)01:13:06:882
    01:16:21.410                : en:(20)01:16:21:410
    01:20:31.827                : en:(21)01:20:31:827
    01:22:47.128                : en:(22)01:22:47:128
    01:26:12.500                : en:(23)01:26:12:500
    01:29:52.887                : en:(24)01:29:52:887
    01:32:50.898                : en:(25)01:32:50:898
    01:37:10.825                : en:(26)01:37:10:825
    01:40:51.378                : en:(27)01:40:51:378
    01:44:57.791                : en:(28)01:44:57:791
    01:48:12.152                : en:(29)01:48:12:152
    01:52:25.572                : en:(30)01:52:25:572
    01:55:42.936                : en:(31)01:55:42:936
    01:57:37.550                : en:(32)01:57:37:550
    02:01:51.470                : en:(33)02:01:51:470
    02:04:18.451                : en:(34)02:04:18:451
    02:07:04.116                : en:(35)02:07:04:116
    02:16:29.681                : en:(36)02:16:29:681

  • Peso: 16.0 GiB

Sinopsis

Las máquinas avanzan imparables hacia Zion en su afán por destruir a toda la humanidad y todas las naves se preparan para la dura batalla. Neo junto con Morfeo y Trinity buscan el camino del elegido dentro de Matrix para vencer a las máquinas y se encuentran con dificultades inesperadas: el agente Smith ha vuelto y no sólo eso, otros programas dentro de Matrix intentarán acabar con su misión. Mientras tanto Neo se tendrá que adaptar a la vida real y a la fama de ser el elegido.

Ficha técnica

Video trailer de la película

Enlaces de descarga

Rip de Bluray

Descargar The Matrix Reloaded (2003) REMUX 1080p Latino




Aportes de DPeliculasHDmega la pass es:dpeliculashdmega.org Aportes de CinemaniaHD la pass es:cinemaniahdd.com

Películas relacionadas

  • Wire Room (2022) HD 1080p Latino

    Wire Room (2022) HD 1080p Latino

    2022
    Wire Room (2022) HD 1080p Latino

    1h 37m 2022

    Descargar Wire Room (2022) HD 1080p Latino. Mientras está de servicio en la sala de cables, un agente...

    Director: Matt Eskandari

    Género: Acción

    Actores: Texas Battle

  • Wire Room (2022) PLACEBO Full HD 1080p Latino

    Wire Room (2022) PLACEBO Full HD 1080p Latino

    2022
    Wire Room (2022) PLACEBO Full HD 1080p Latino

    1h 37m 2022

    Descargar Wire Room (2022) PLACEBO Full HD 1080p Latino. Mientras está de servicio en la sala de cables,...

    Director: Matt Eskandari

    Género: Acción

    Actores: Texas Battle

  • Wire Room (2022) REMUX 1080p Latino

    Wire Room (2022) REMUX 1080p Latino

    2022
    Wire Room (2022) REMUX 1080p Latino

    1h 37m 2022

    Descargar Wire Room (2022) REMUX 1080p Latino. Mientras está de servicio en la sala de cables, un agente...

    Director: Matt Eskandari

    Género: Acción

    Actores: Texas Battle

  • Alarido (2022) HD 1080p Latino

    Alarido (2022) HD 1080p Latino

    2022
    Alarido (2022) HD 1080p Latino

    1h 29m 2022

    Descargar Alarido (2022) HD 1080p Latino. Una joven madre soltera es cautiva junto con sus dos hijos...

    Director: D.J. Caruso

    Género: HD 1080p

    Actores: Vincent Gallo

  • Alarido (2022) PLACEBO Full HD 1080p Latino

    Alarido (2022) PLACEBO Full HD 1080p Latino

    2022
    Alarido (2022) PLACEBO Full HD 1080p Latino

    1h 29m 2022

    Descargar Alarido (2022) PLACEBO Full HD 1080p Latino. Una joven madre soltera es cautiva junto con sus...

    Director: D.J. Caruso

    Género: FULL 1080p Plateadas

    Actores: Vincent Gallo

descargar The Matrix Reloaded (2003) REMUX 1080p Latino Full 1080p 1080p gratis, The Matrix Reloaded (2003) REMUX 1080p Latino Full 1080p mega 1 link, The Matrix Reloaded (2003) REMUX 1080p Latino Full 1080p pelicula completa, descargar The Matrix Reloaded (2003) REMUX 1080p Latino Full 1080p gratis en mega.

The Matrix Reloaded (2003) REMUX 1080p Latino pelicula full hd, The Matrix Reloaded (2003) REMUX 1080p Latino mega latino, The Matrix Reloaded (2003) REMUX 1080p Latino 4k latino, The Matrix Reloaded (2003) REMUX 1080p Latino pelicula completa, The Matrix Reloaded (2003) REMUX 1080p Latino descargar gratis, descargar The Matrix Reloaded (2003) REMUX 1080p Latino pelicula latino, The Matrix Reloaded (2003) REMUX 1080p Latino 1 link mega, The Matrix Reloaded (2003) REMUX 1080p Latino 1 link google drive, The Matrix Reloaded (2003) REMUX 1080p Latino hd 1080p latino.
Comentarios 2
  • Bruce - 10 marzo, 2020

    Hola, gracias por el aporte!, una pregunta esta versión es la remasterizada?

  • ricardo - 16 febrero, 2020

    Excelente. gracias por el aporte. pregunta, podrian subir la saga en 4k? gracias, sigan asi. saludos