The Hitman’s Bodyguard (2017) Full 1080p Latino

2.190 vistas
1 estrella2 estrellas3 estrellas4 estrellas5 estrellas (12 votos, promedio: 4,17 de 5)
Cargando…

Información de The Hitman’s Bodyguard (2017) Full 1080p Latino

Datos de la película

  • Calidad: Full 1080p
  • Audio: Español Latino AC3 5.1 DVD - Ingles AC3 5.1 BLURAY
  • Subtitulos: Español Latino PGS - Ingles PGS
  • Resolución: 1920x1080p
  • Formato: MKV
  • Codec: H.264
  • Encoder: Dracarys
  • Mediainfo: Clic para Mostrar Datos Ver
  • Format                                   : Matroska
    Format version                           : Version 4 / Version 2
    File size                                : 4.86 GiB
    Duration                                 : 1 h 58 min
    Overall bit rate                         : 5 877 kb/s
    Movie name                               : CinemaniaHDD.net
    Encoded date                             : UTC 2018-08-17 05:41:24 / UTC 2018-08-16T21:18:15Z
    Writing application                      : mkvmerge v15.0.0 ('Duel with the Devil') 64-bit
    Writing library                          : libebml v1.3.5 + libmatroska v1.4.5 / Lavf57.7.2

    Video
    ID                                       : 1
    Format                                   : AVC
    Format/Info                              : Advanced Video Codec
    Format profile                           : High@L4.1
    Format settings                          : CABAC / 4 Ref Frames
    Format settings, CABAC                   : Yes
    Format settings, RefFrames               : 4 frames
    Codec ID                                 : V_MPEG4/ISO/AVC
    Duration                                 : 1 h 58 min
    Bit rate                                 : 4 672 kb/s
    Width                                    : 1 920 pixels
    Height                                   : 1 080 pixels
    Display aspect ratio                     : 16:9
    Frame rate mode                          : Constant
    Frame rate                               : 23.976 (24000/1001) FPS
    Color space                              : YUV
    Chroma subsampling                       : 4:2:0
    Bit depth                                : 8 bits
    Scan type                                : Progressive
    Bits/(Pixel*Frame)                       : 0.094
    Stream size                              : 3.86 GiB (79%)
    Title                                    : The Hitman's Bodyguard (2017) Full 1080p Latino
    Writing library                          : x264 core 148 r2708 86b7198
    Encoding settings                        : cabac=1 / ref=4 / deblock=1:0:0 / analyse=0x3:0x133 / me=esa / subme=10 / psy=1 / psy_rd=1.00:0.00 / mixed_ref=1 / me_range=24 / chroma_me=1 / trellis=2 / 8x8dct=1 / cqm=0 / deadzone=21,11 / fast_pskip=1 / chroma_qp_offset=-2 / threads=34 / lookahead_threads=5 / sliced_threads=0 / nr=0 / decimate=1 / interlaced=0 / bluray_compat=0 / constrained_intra=0 / bframes=8 / b_pyramid=2 / b_adapt=2 / b_bias=0 / direct=3 / weightb=1 / open_gop=0 / weightp=2 / keyint=240 / keyint_min=24 / scenecut=40 / intra_refresh=0 / rc_lookahead=60 / rc=crf / mbtree=1 / crf=20.0 / qcomp=0.60 / qpmin=0 / qpmax=69 / qpstep=4 / vbv_maxrate=62500 / vbv_bufsize=78125 / crf_max=0.0 / nal_hrd=none / filler=0 / ip_ratio=1.40 / aq=1:1.00
    Language                                 : English
    Default                                  : Yes
    Forced                                   : No
    Color range                              : Limited
    Color primaries                          : BT.709
    Transfer characteristics                 : BT.709
    Matrix coefficients                      : BT.709
    Statistics Tags Issue                    : mkvmerge v15.0.0 ('Duel with the Devil') 64-bit 2018-08-17 05:41:24 / mkvmerge v15.0.0 ('Duel with the Devil') 64-bit 2018-08-17 05:41:24 / UTC 2018-08-16T21:18:15Z
    FromStats_BitRate                        : 4743224
    FromStats_Duration                       : 01:58:17.132000000
    FromStats_FrameCount                     : 170161
    FromStats_StreamSize                     : 4207911673

    Audio #1
    ID                                       : 2
    Format                                   : AC-3
    Format/Info                              : Audio Coding 3
    Format settings, Endianness              : Big
    Codec ID                                 : A_AC3
    Duration                                 : 1 h 58 min
    Bit rate mode                            : Constant
    Bit rate                                 : 448 kb/s
    Channel(s)                               : 6 channels
    Channel positions                        : Front: L C R, Side: L R, LFE
    Sampling rate                            : 48.0 kHz
    Frame rate                               : 31.250 FPS (1536 SPF)
    Bit depth                                : 16 bits
    Compression mode                         : Lossy
    Delay relative to video                  : 14 s 650 ms
    Stream size                              : 379 MiB (8%)
    Title                                    : AC3 5.1 DVD
    Language                                 : Spanish
    Service kind                             : Complete Main
    Default                                  : Yes
    Forced                                   : No
    Statistics Tags Issue                    : mkvmerge v15.0.0 ('Duel with the Devil') 64-bit 2018-08-17 05:41:24 / mkvmerge v15.0.0 ('Duel with the Devil') 64-bit 2018-08-17 05:41:24 / UTC 2018-08-16T21:18:15Z
    FromStats_BitRate                        : 448000
    FromStats_Duration                       : 01:58:02.144000000
    FromStats_FrameCount                     : 221317
    FromStats_StreamSize                     : 396600064

    Audio #2
    ID                                       : 3
    Format                                   : AC-3
    Format/Info                              : Audio Coding 3
    Format settings, Endianness              : Big
    Codec ID                                 : A_AC3
    Duration                                 : 1 h 58 min
    Bit rate mode                            : Constant
    Bit rate                                 : 640 kb/s
    Channel(s)                               : 6 channels
    Channel positions                        : Front: L C R, Side: L R, LFE
    Sampling rate                            : 48.0 kHz
    Frame rate                               : 31.250 FPS (1536 SPF)
    Bit depth                                : 16 bits
    Compression mode                         : Lossy
    Stream size                              : 541 MiB (11%)
    Title                                    : AC3 5.1 Bluray
    Language                                 : English
    Service kind                             : Complete Main
    Default                                  : No
    Forced                                   : No
    Statistics Tags Issue                    : mkvmerge v15.0.0 ('Duel with the Devil') 64-bit 2018-08-17 05:41:24 / mkvmerge v15.0.0 ('Duel with the Devil') 64-bit 2018-08-17 05:41:24 / UTC 2018-08-16T21:18:15Z
    FromStats_BitRate                        : 640000
    FromStats_Duration                       : 01:58:17.152000000
    FromStats_FrameCount                     : 221786
    FromStats_StreamSize                     : 567772160

    Text #1
    ID                                       : 4
    Format                                   : PGS
    Muxing mode                              : zlib
    Codec ID                                 : S_HDMV/PGS
    Codec ID/Info                            : Picture based subtitle format used on BDs/HD-DVDs
    Language                                 : English
    Default                                  : No
    Forced                                   : No
    Statistics Tags Issue                    : mkvmerge v15.0.0 ('Duel with the Devil') 64-bit 2018-08-17 05:41:24 / mkvmerge v15.0.0 ('Duel with the Devil') 64-bit 2018-08-17 05:41:24 / UTC 2018-08-16T21:18:15Z
    FromStats_BitRate                        : 52608
    FromStats_Duration                       : 01:57:44.807000000
    FromStats_FrameCount                     : 3914
    FromStats_StreamSize                     : 46458575

    Text #2
    ID                                       : 5
    Format                                   : PGS
    Muxing mode                              : zlib
    Codec ID                                 : S_HDMV/PGS
    Codec ID/Info                            : Picture based subtitle format used on BDs/HD-DVDs
    Language                                 : Spanish
    Default                                  : No
    Forced                                   : No
    Statistics Tags Issue                    : mkvmerge v15.0.0 ('Duel with the Devil') 64-bit 2018-08-17 05:41:24 / mkvmerge v15.0.0 ('Duel with the Devil') 64-bit 2018-08-17 05:41:24 / UTC 2018-08-16T21:18:15Z
    FromStats_BitRate                        : 39617
    FromStats_Duration                       : 01:56:31.276000000
    FromStats_FrameCount                     : 2512
    FromStats_StreamSize                     : 34622338

    Menu
    00:00:00.000                             : :Chapter 1
    00:07:22.943                             : :Chapter 2
    00:13:53.875                             : :Chapter 3
    00:20:23.305                             : :Chapter 4
    00:27:20.139                             : :Chapter 5
    00:32:53.513                             : :Chapter 6
    00:38:25.428                             : :Chapter 7
    00:46:52.977                             : :Chapter 8
    00:56:39.354                             : :Chapter 9
    01:00:23.370                             : :Chapter 10
    01:09:11.397                             : :Chapter 11
    01:16:34.381                             : :Chapter 12
    01:21:11.241                             : :Chapter 13
    01:27:45.093                             : :Chapter 14
    01:35:06.743                             : :Chapter 15
    01:40:37.740                             : :Chapter 16

  • Peso: 4.86 GiB

Sinopsis

El prestigioso guardaespaldas Michael Bryce recibe un nuevo cliente: un asesino a sueldo, Darius Kincaid, que debe testificar en un juicio en La Haya contra un cruel dictador.

Ficha técnica

Video trailer de la película

Enlaces de descarga

Rip de Bluray

Descargar The Hitman’s Bodyguard (2017) Full 1080p Latino




Aportes de DPeliculasHDmega la pass es:dpeliculashdmega.org Aportes de CinemaniaHD la pass es:cinemaniahdd.com

Películas relacionadas

  • Escuela Nocturnas (2018) WEBDL 1080p Latino

    2018
    Escuela Nocturnas (2018) WEBDL 1080p Latino

    0.0 1h 51m 2018

    A Teddy Walker (Kevin Hart) le acaban de decir que tiene dislexia, además de otras discapacidades de...

    Director: Malcolm D. Lee

    Género: Comedia

    Actores: Yvonne Orji

  • El Depredador (2018) Full 1080p Latino ( PLACEBO)

    2018
    El Depredador (2018) Full 1080p Latino ( PLACEBO)

    5.0 1h 41m 2018

    El Depredador  Full HD Latino Torrent Cuando el pequeño Rory (Jacob Tremblay) activa accidentalmente...

    Director: Shane Black

    Género: Acción

    Actores: Yvonne Strahovski

  • Blood Brother (2018) WEBDL 1080p Latino

    2018
    Blood Brother (2018) WEBDL 1080p Latino

    0.0 1h 30m 2018

    El hermano de sangre se desarrolla en las calles de una ciudad en decadencia, donde un convicto recientemente...

    Director: John Pogue

    Género: Acción

    Actores: Trey Songz

  • Leprechaun Returns (2018) WEBDL 1080p Latino

    2019
    Leprechaun Returns (2018) WEBDL 1080p Latino

    0.0 1h 32m 2019

    Un grupo de hermanas de la hermandad involuntaria despiertan accidentalmente al Leprechaun asesino en...

    Director: Steven Kostanski

    Género: Comedia

    Actores: Taylor Spreitler

Comentarios 0