The Great Gatsby (2013) Full 1080p Latino

986 vistas
1 estrella2 estrellas3 estrellas4 estrellas5 estrellas (Ninguna valoración todavía)
Cargando…

Información de The Great Gatsby (2013) Full 1080p Latino

Datos de la película

  • Calidad: Full 1080p
  • Audio: Español Latino AC3 5.1 BLURAY - Ingles DTS 5.1 BLURAY
  • Subtitulos: Español Latino PGS - Ingles PGS
  • Resolución: 1920X1080p
  • Formato: MKV
  • Codec: H.264
  • Encoder: Dracarys
  • Mediainfo: Clic para Mostrar Datos Ver
  • Format                                   : Matroska
    Format version                           : Version 4 / Version 2
    File size                                : 7.97 GiB
    Duration                                 : 2 h 22 min
    Overall bit rate                         : 8 026 kb/s
    Movie name                               : CinemaniaHDD.com
    Encoded date                             : UTC 2018-03-21 04:47:38 / UTC 2018-03-20T20:45:00Z
    Writing application                      : mkvmerge v15.0.0 ('Duel with the Devil') 64-bit
    Writing library                          : libebml v1.3.5 + libmatroska v1.4.5 / Lavf57.7.2

    Video
    ID                                       : 1
    Format                                   : AVC
    Format/Info                              : Advanced Video Codec
    Format profile                           : [email protected]
    Format settings                          : CABAC / 4 Ref Frames
    Format settings, CABAC                   : Yes
    Format settings, RefFrames               : 4 frames
    Codec ID                                 : V_MPEG4/ISO/AVC
    Duration                                 : 2 h 22 min
    Bit rate                                 : 5 909 kb/s
    Width                                    : 1 920 pixels
    Height                                   : 1 080 pixels
    Display aspect ratio                     : 16:9
    Frame rate mode                          : Constant
    Frame rate                               : 23.976 (24000/1001) FPS
    Color space                              : YUV
    Chroma subsampling                       : 4:2:0
    Bit depth                                : 8 bits
    Scan type                                : Progressive
    Bits/(Pixel*Frame)                       : 0.119
    Stream size                              : 5.87 GiB (74%)
    Title                                    : The Great Gatsby (2013) Full 1080p Latino
    Writing library                          : x264 core 148 r2708 86b7198
    Encoding settings                        : cabac=1 / ref=4 / deblock=1:0:0 / analyse=0x3:0x133 / me=esa / subme=9 / psy=1 / psy_rd=1.00:0.00 / mixed_ref=1 / me_range=16 / chroma_me=1 / trellis=2 / 8x8dct=1 / cqm=0 / deadzone=21,11 / fast_pskip=1 / chroma_qp_offset=-2 / threads=34 / lookahead_threads=2 / sliced_threads=0 / nr=0 / decimate=1 / interlaced=0 / bluray_compat=0 / constrained_intra=0 / bframes=3 / b_pyramid=2 / b_adapt=2 / b_bias=0 / direct=3 / weightb=1 / open_gop=0 / weightp=2 / keyint=240 / keyint_min=24 / scenecut=40 / intra_refresh=0 / rc_lookahead=60 / rc=crf / mbtree=1 / crf=20.0 / qcomp=0.60 / qpmin=0 / qpmax=69 / qpstep=4 / vbv_maxrate=62500 / vbv_bufsize=78125 / crf_max=0.0 / nal_hrd=none / filler=0 / ip_ratio=1.40 / aq=1:1.00
    Language                                 : English
    Default                                  : Yes
    Forced                                   : No
    Color range                              : Limited
    Color primaries                          : BT.709
    Transfer characteristics                 : BT.709
    Matrix coefficients                      : BT.709
    Statistics Tags Issue                    : mkvmerge v15.0.0 ('Duel with the Devil') 64-bit 2018-03-21 04:47:38 / mkvmerge v15.0.0 ('Duel with the Devil') 64-bit 2018-03-21 04:47:38 / UTC 2018-03-20T20:45:00Z
    FromStats_BitRate                        : 6036359
    FromStats_Duration                       : 02:22:05.684000000
    FromStats_FrameCount                     : 204412
    FromStats_StreamSize                     : 6433011236

    Audio #1
    ID                                       : 2
    Format                                   : AC-3
    Format/Info                              : Audio Coding 3
    Format settings, Endianness              : Big
    Codec ID                                 : A_AC3
    Duration                                 : 2 h 22 min
    Bit rate mode                            : Constant
    Bit rate                                 : 448 kb/s
    Channel(s)                               : 6 channels
    Channel positions                        : Front: L C R, Side: L R, LFE
    Sampling rate                            : 48.0 kHz
    Frame rate                               : 31.250 FPS (1536 SPF)
    Bit depth                                : 16 bits
    Compression mode                         : Lossy
    Stream size                              : 455 MiB (6%)
    Language                                 : Spanish
    Service kind                             : Complete Main
    Default                                  : Yes
    Forced                                   : No
    Statistics Tags Issue                    : mkvmerge v15.0.0 ('Duel with the Devil') 64-bit 2018-03-21 04:47:38 / mkvmerge v15.0.0 ('Duel with the Devil') 64-bit 2018-03-21 04:47:38 / UTC 2018-03-20T20:45:00Z
    FromStats_BitRate                        : 448000
    FromStats_Duration                       : 02:22:06.752000000
    FromStats_FrameCount                     : 266461
    FromStats_StreamSize                     : 477498112

    Audio #2
    ID                                       : 3
    Format                                   : DTS
    Format/Info                              : Digital Theater Systems
    Mode                                     : 16
    Format settings, Endianness              : Big
    Codec ID                                 : A_DTS
    Duration                                 : 2 h 22 min
    Bit rate mode                            : Constant
    Bit rate                                 : 1 509 kb/s
    Channel(s)                               : 6 channels
    Channel positions                        : Front: L C R, Side: L R, LFE
    Sampling rate                            : 48.0 kHz
    Frame rate                               : 93.750 FPS (512 SPF)
    Bit depth                                : 16 bits
    Compression mode                         : Lossy
    Stream size                              : 1.50 GiB (19%)
    Language                                 : English
    Default                                  : No
    Forced                                   : No
    Statistics Tags Issue                    : mkvmerge v15.0.0 ('Duel with the Devil') 64-bit 2018-03-21 04:47:38 / mkvmerge v15.0.0 ('Duel with the Devil') 64-bit 2018-03-21 04:47:38 / UTC 2018-03-20T20:45:00Z
    FromStats_BitRate                        : 1509000
    FromStats_Duration                       : 02:22:06.720000000
    FromStats_FrameCount                     : 799380
    FromStats_StreamSize                     : 1608352560

    Text #1
    ID                                       : 4
    Format                                   : UTF-8
    Codec ID                                 : S_TEXT/UTF8
    Codec ID/Info                            : UTF-8 Plain Text
    Title                                    : SRT-Forzados
    Language                                 : Spanish
    Default                                  : Yes
    Forced                                   : Yes
    Statistics Tags Issue                    : mkvmerge v15.0.0 ('Duel with the Devil') 64-bit 2018-03-21 04:47:38 / mkvmerge v15.0.0 ('Duel with the Devil') 64-bit 2018-03-21 04:47:38 / UTC 2018-03-20T20:45:00Z
    FromStats_BitRate                        : 0
    FromStats_Duration                       : 02:20:08.692000000
    FromStats_FrameCount                     : 22
    FromStats_StreamSize                     : 524

    Text #2
    ID                                       : 5
    Format                                   : PGS
    Muxing mode                              : zlib
    Codec ID                                 : S_HDMV/PGS
    Codec ID/Info                            : Picture based subtitle format used on BDs/HD-DVDs
    Language                                 : English
    Default                                  : No
    Forced                                   : No
    Statistics Tags Issue                    : mkvmerge v15.0.0 ('Duel with the Devil') 64-bit 2018-03-21 04:47:38 / mkvmerge v15.0.0 ('Duel with the Devil') 64-bit 2018-03-21 04:47:38 / UTC 2018-03-20T20:45:00Z
    FromStats_BitRate                        : 34543
    FromStats_Duration                       : 02:20:53.696000000
    FromStats_FrameCount                     : 4642
    FromStats_StreamSize                     : 36502192

    Text #3
    ID                                       : 6
    Format                                   : PGS
    Muxing mode                              : zlib
    Codec ID                                 : S_HDMV/PGS
    Codec ID/Info                            : Picture based subtitle format used on BDs/HD-DVDs
    Title                                    : PGS-Forzados
    Language                                 : Spanish
    Default                                  : No
    Forced                                   : No
    Statistics Tags Issue                    : mkvmerge v15.0.0 ('Duel with the Devil') 64-bit 2018-03-21 04:47:38 / mkvmerge v15.0.0 ('Duel with the Devil') 64-bit 2018-03-21 04:47:38 / UTC 2018-03-20T20:45:00Z
    FromStats_BitRate                        : 329
    FromStats_Duration                       : 02:20:08.692000000
    FromStats_FrameCount                     : 44
    FromStats_StreamSize                     : 346189

    Text #4
    ID                                       : 7
    Format                                   : PGS
    Muxing mode                              : zlib
    Codec ID                                 : S_HDMV/PGS
    Codec ID/Info                            : Picture based subtitle format used on BDs/HD-DVDs
    Title                                    : PGS-Completos
    Language                                 : Spanish
    Default                                  : No
    Forced                                   : No
    Statistics Tags Issue                    : mkvmerge v15.0.0 ('Duel with the Devil') 64-bit 2018-03-21 04:47:38 / mkvmerge v15.0.0 ('Duel with the Devil') 64-bit 2018-03-21 04:47:38 / UTC 2018-03-20T20:45:00Z
    FromStats_BitRate                        : 30315
    FromStats_Duration                       : 02:20:53.696000000
    FromStats_FrameCount                     : 4414
    FromStats_StreamSize                     : 32034678

    Menu
    00:00:00.000                             : :Chapter 1
    00:11:04.080                             : :Chapter 2
    00:22:55.833                             : :Chapter 3
    00:34:26.898                             : :Chapter 4
    00:44:48.728                             : :Chapter 5
    00:55:36.333                             : :Chapter 6
    01:06:20.643                             : :Chapter 7
    01:18:27.786                             : :Chapter 8
    01:31:13.927                             : :Chapter 9
    01:44:11.954                             : :Chapter 10
    01:56:35.155                             : :Chapter 11
    02:05:46.122                             : :Chapter 12
    02:09:40.982                             : :Chapter 13

  • Peso: 7.97 GiB

Sinopsis

Adaptación de la novela homónima de F. Scott Fitzgerald. En la alta sociedad norteamericana, llama la atención la presencia de Gatsby, un hombre misterioso e inmensamente rico, al que todos consideran un advenedizo, lo que no impide que acudan a sus fastuosas fiestas. Gatsby vive obsesionado con la idea de recuperar al amor de su juventud.

Ficha técnica

Video trailer de la película

Enlaces de descarga

Rip de Bluray

Descargar The Great Gatsby (2013) Full 1080p Latino




Aportes de DPeliculasHDmega la pass es:dpeliculashdmega.org Aportes de CinemaniaHD la pass es:cinemaniahdd.com

Películas relacionadas

  • The mule (2018) WEB-DL 1080p Latino

    2018
    The mule (2018) WEB-DL 1080p Latino

    0.0 1h 56m 2018

    A Earl Stone (Eastwood), un octogenario que está en quiebra, solo, y que se enfrenta a la ejecución...

    Director: Clint Eastwood

    Género: Crimen

    Actores: Victor Rasuk

  • Aquaman (2018) Full HD 1080p Latino

    2018
    Aquaman (2018) Full HD 1080p Latino

    5.0 2h 24m 2018

    Un icono durante más de 70 años, Aquaman (Jason Momoa) es el Rey de los Siete Mares. Este reacio gobernante...

    Director: James Wan

    Género: Acción

    Actores: Yahya Abdul-Mateen II

  • Nace Una Estrella (2018) 4K UHD HDR Latino

    2018
    Nace Una Estrella (2018) 4K UHD HDR Latino

    0.0 2h 25m 2018

    Descargar Nace Una Estrella (2018) 4K UHD HDR Latino, Mega, Google Drive. Jackson Maine es una estrella...

    Director: Bradley Cooper

    Género: 4K HDR

    Actores: Willam Belli

  • FBI (2018) Temporada 1 1080p WEB-DL Latino

    2018
    FBI (2018) Temporada 1 1080p WEB-DL Latino

    0.0 0h 43m 2018

    Serie de TV (2018-). Drama vertiginoso sobre el funcionamiento interno de la oficina de Nueva York del...

    Director: Dick Wolf

    Género: Crimen

    Actores: Zeeko Zaki

Comentarios 0