×

¿Problemas para descargar con Mozilla, EDGE? Deshabilita la opción "Abrir vinculos en una pestaña nueva" tal como lo muestra ésta imagen.

The Flash (2021) Temporada 08 NF Web-DL 1080p Latino

1.056 vistas

Información de The Flash (2021) Temporada 08 NF Web-DL 1080p Latino

Datos de la película

  • Calidad: WEBDL
  • Audio: Español Latino E-AC3 5.1 Netflix - Ingles E-AC3 5.1 Netflix
  • Subtitulos: Español Latino SRT - Ingles SRT
  • Resolución: 1920x1080p
  • Formato: MKV
  • Codec: H.264
  • Encoder: CinefiloCool | CinemaniaHDD
  • Mediainfo: Clic para Mostrar Datos Ver
  • The Flash S08E01 NF Web-DL 1080p Latino-CMHDD.mkv
    Format                      : Matroska
    Format version              : Version 4
    File size                   : 1.29 GiB
    Duration                    : 42 min 10 s
    Overall bit rate mode       : Variable
    Overall bit rate            : 4 371 kb/s
    Movie name                  : The.Flash.S08E01.Armageddon.Part.1 CinemaniaHDD.Net
    Encoded date                : UTC 2022-07-26 21:34:10
    Writing application         : mkvmerge v56.1.0 ('My Friend') 64-bit
    Writing library             : libebml v1.4.2 + libmatroska v1.6.4
    Attachments                 : CINEMANIAHD.png

    Video
    ID                          : 1
    Format                      : AVC
    Format/Info                 : Advanced Video Codec
    Format profile              : High@L4
    Format settings             : CABAC / 4 Ref Frames
    Format settings, CABAC      : Yes
    Format settings, Reference  : 4 frames
    Codec ID                    : V_MPEG4/ISO/AVC
    Duration                    : 42 min 10 s
    Bit rate mode               : Variable
    Bit rate                    : 3 088 kb/s
    Maximum bit rate            : 20.0 Mb/s
    Width                       : 1 920 pixels
    Height                      : 1 080 pixels
    Display aspect ratio        : 16:9
    Frame rate mode             : Constant
    Frame rate                  : 23.976 (24000/1001) FPS
    Color space                 : YUV
    Chroma subsampling          : 4:2:0
    Bit depth                   : 8 bits
    Scan type                   : Progressive
    Bits/(Pixel*Frame)          : 0.062
    Stream size                 : 932 MiB (71%)
    Title                       : WEB HD1080p [CinemaniaHDD]
    Writing library             : x264 core 148 r2727 7d026e8
    Encoding settings           : cabac=1 / ref=4 / deblock=1:0:0 / analyse=0x3:0x111 / me=umh / subme=10 / psy=1 / psy_rd=1.00:0.00 / mixed_ref=1 / me_range=120 / chroma_me=1 / trellis=2 / 8x8dct=1 / cqm=0 / deadzone=21,11 / fast_pskip=1 / chroma_qp_offset=-2 / threads=8 / lookahead_threads=2 / sliced_threads=0 / nr=0 / decimate=1 / interlaced=0 / bluray_compat=0 / stitchable=1 / constrained_intra=0 / bframes=16 / b_pyramid=2 / b_adapt=2 / b_bias=0 / direct=3 / weightb=1 / open_gop=0 / weightp=2 / keyint=240 / keyint_min=121 / scenecut=0 / intra_refresh=0 / rc_lookahead=240 / rc=crf / mbtree=1 / crf=16.0 / qcomp=0.50 / qpmin=6 / qpmax=51 / qpstep=4 / vbv_maxrate=20000 / vbv_bufsize=25000 / crf_max=0.0 / nal_hrd=vbr / filler=0 / ip_ratio=1.40 / aq=1:0.80
    Default                     : Yes
    Forced                      : No

    Audio #1
    ID                          : 2
    Format                      : E-AC-3
    Format/Info                 : Enhanced AC-3
    Commercial name             : Dolby Digital Plus
    Codec ID                    : A_EAC3
    Duration                    : 42 min 10 s
    Bit rate mode               : Constant
    Bit rate                    : 640 kb/s
    Channel(s)                  : 6 channels
    Channel layout              : L R C LFE Ls Rs
    Sampling rate               : 48.0 kHz
    Frame rate                  : 31.250 FPS (1536 SPF)
    Compression mode            : Lossy
    Stream size                 : 193 MiB (15%)
    Title                       : Español Latino [CinemaniaHDD]
    Language                    : Spanish
    Service kind                : Complete Main
    Default                     : Yes
    Forced                      : No

    Audio #2
    ID                          : 3
    Format                      : E-AC-3
    Format/Info                 : Enhanced AC-3
    Commercial name             : Dolby Digital Plus
    Codec ID                    : A_EAC3
    Duration                    : 42 min 10 s
    Bit rate mode               : Constant
    Bit rate                    : 640 kb/s
    Channel(s)                  : 6 channels
    Channel layout              : L R C LFE Ls Rs
    Sampling rate               : 48.0 kHz
    Frame rate                  : 31.250 FPS (1536 SPF)
    Compression mode            : Lossy
    Stream size                 : 193 MiB (15%)
    Title                       : Ingles [CinemaniaHDD]
    Language                    : English
    Service kind                : Complete Main
    Default                     : No
    Forced                      : No

    Text #1
    ID                          : 4
    Format                      : UTF-8
    Codec ID                    : S_TEXT/UTF8
    Codec ID/Info               : UTF-8 Plain Text
    Duration                    : 37 min 59 s
    Bit rate                    : 1 b/s
    Count of elements           : 10
    Stream size                 : 358 Bytes (0%)
    Title                       : Forzados-SRT [CinemaniaHDD]
    Language                    : Spanish
    Default                     : Yes
    Forced                      : Yes

    Text #2
    ID                          : 5
    Format                      : UTF-8
    Codec ID                    : S_TEXT/UTF8
    Codec ID/Info               : UTF-8 Plain Text
    Duration                    : 41 min 55 s
    Bit rate                    : 81 b/s
    Count of elements           : 734
    Stream size                 : 24.9 KiB (0%)
    Title                       : Español-SRT [CinemaniaHDD]
    Language                    : Spanish
    Default                     : No
    Forced                      : No

    Text #3
    ID                          : 6
    Format                      : UTF-8
    Codec ID                    : S_TEXT/UTF8
    Codec ID/Info               : UTF-8 Plain Text
    Duration                    : 41 min 56 s
    Bit rate                    : 97 b/s
    Count of elements           : 932
    Stream size                 : 30.0 KiB (0%)
    Title                       : Ingles-SRT [CinemaniaHDD]
    Language                    : English
    Default                     : No
    Forced                      : No

  • Peso: 1.14GiB - 1.28GiB Aprox C/U. | 28 GiB Total.

Sinopsis

Descargar The Flash (2021) Temporada 08 NF Web-DL 1080p Latino. Después de derrotar a Godspeed con la ayuda de sus veloces hijos del futuro, Barry Allen, alias The Flash, regresa para enfrentar nuevos desafíos en la temporada 8. Con la ayuda del Team Flash en STAR Labs y su familia, The Flash se enfrentará a villanos nuevos y viejos. en Central City. En el primer arco argumental tenemos el crossover llamado «Armageddon» de 5 episodios que nos cuenta como una poderosa amenaza alienígena llega a la Tierra en circunstancias misteriosas y Barry, Iris y el resto del Equipo Flash son llevados al límite en una batalla desesperada por salvar el mundo. Pero a medida que se acaba el tiempo y el destino de la humanidad está en juego, Flash y sus compañeros también necesitarán contar con la ayuda de algunos viejos amigos para que las fuerzas del bien prevalezcan.

Audio Latino: CinefiloCool & CinemaniaHDD
20/20 Capitulos Temporada Completa!!!

Ficha técnica

Video trailer de la película

Enlaces de descarga

Rip de Bluray

Descargar The Flash (2021) Temporada 08 NF Web-DL 1080p Latino




Aportes de DPeliculasHDmega la pass es:dpeliculashdmega.org Aportes de CinemaniaHD la pass es:cinemaniahdd.com

Películas relacionadas

The Flash (2021) Temporada 08 NF Web-DL 1080p Latino pelicula full hd, The Flash (2021) Temporada 08 NF Web-DL 1080p Latino mega latino, The Flash (2021) Temporada 08 NF Web-DL 1080p Latino 4k latino, The Flash (2021) Temporada 08 NF Web-DL 1080p Latino pelicula completa, The Flash (2021) Temporada 08 NF Web-DL 1080p Latino descargar gratis, descargar The Flash (2021) Temporada 08 NF Web-DL 1080p Latino pelicula latino, The Flash (2021) Temporada 08 NF Web-DL 1080p Latino 1 link mega, The Flash (2021) Temporada 08 NF Web-DL 1080p Latino 1 link google drive, The Flash (2021) Temporada 08 NF Web-DL 1080p Latino hd 1080p latino.
Comentarios 0