×

¿Problemas para descargar con Mozilla, EDGE? Deshabilita la opción "Abrir vinculos en una pestaña nueva" tal como lo muestra ésta imagen.

The Flash (2019 – 2020) Temporada 06 CW Web-DL 1080p Latino

6.970 vistas

Información de The Flash (2019 – 2020) Temporada 06 CW Web-DL 1080p Latino

Datos de la película

  • Calidad: WEBDL
  • Audio: Se especifica abajo de la Sinopsis
  • Subtitulos: Español Latino SRT- FORZADOS SRT
  • Resolución: 1920x1080p
  • Formato: MKV
  • Codec: H.264
  • Encoder: CinefiloCool & CNMNHDD
  • Mediainfo: Clic para Mostrar Datos Ver
  • Flash T06E13 CW WEB-DL 1080p Latino [CNMNHDD].mkv
    Format                      : Matroska
    Format version              : Version 4
    File size                   : 2.36 GiB
    Duration                    : 42 min 13 s
    Overall bit rate mode       : Variable
    Overall bit rate            : 7 985 kb/s
    Movie name                  : Flash T06E13 - CinemaniaHDD.Net
    Encoded date                : UTC 2020-07-13 16:25:47
    Writing application         : mkvmerge v30.1.0 ('Forever And More') 64-bit
    Writing library             : libebml v1.3.6 + libmatroska v1.4.9 / Lavf58.28.101

    Video
    ID                          : 1
    Format                      : AVC
    Format/Info                 : Advanced Video Codec
    Format profile              : Main@L4
    Format settings             : CABAC / 3 Ref Frames
    Format settings, CABAC      : Yes
    Format settings, Reference  : 3 frames
    Codec ID                    : V_MPEG4/ISO/AVC
    Duration                    : 42 min 13 s
    Bit rate mode               : Variable
    Bit rate                    : 7 500 kb/s
    Maximum bit rate            : 11.2 Mb/s
    Width                       : 1 920 pixels
    Height                      : 1 080 pixels
    Display aspect ratio        : 16:9
    Frame rate mode             : Constant
    Frame rate                  : 23.976 (24000/1001) FPS
    Color space                 : YUV
    Chroma subsampling          : 4:2:0
    Bit depth                   : 8 bits
    Scan type                   : Progressive
    Bits/(Pixel*Frame)          : 0.151
    Stream size                 : 2.20 GiB (94%)
    Title                       : CinemaniaHDD
    Writing library             : x264 core 148 r2717 0d2410d
    Encoding settings           : cabac=1 / ref=3 / deblock=1:0:0 / analyse=0x1:0x111 / me=umh / subme=10 / psy=1 / psy_rd=1.00:0.00 / mixed_ref=1 / me_range=24 / chroma_me=1 / trellis=2 / 8x8dct=0 / cqm=0 / deadzone=21,11 / fast_pskip=1 / chroma_qp_offset=-2 / threads=6 / lookahead_threads=1 / sliced_threads=0 / nr=0 / decimate=1 / interlaced=0 / bluray_compat=0 / stitchable=1 / constrained_intra=0 / bframes=2 / b_pyramid=0 / b_adapt=2 / b_bias=0 / direct=3 / weightb=1 / open_gop=0 / weightp=2 / keyint=250 / keyint_min=23 / scenecut=0 / intra_refresh=0 / rc_lookahead=48 / rc=2pass / mbtree=1 / bitrate=7500 / ratetol=1.0 / qcomp=0.50 / qpmin=6 / qpmax=51 / qpstep=4 / cplxblur=20.0 / qblur=0.5 / vbv_maxrate=11250 / vbv_bufsize=15000 / nal_hrd=vbr / filler=0 / ip_ratio=1.40 / aq=1:1.00
    Default                     : Yes
    Forced                      : No

    Audio #1
    ID                          : 2
    Format                      : E-AC-3
    Format/Info                 : Enhanced AC-3
    Commercial name             : Dolby Digital Plus
    Codec ID                    : A_EAC3
    Duration                    : 42 min 13 s
    Bit rate mode               : Constant
    Bit rate                    : 128 kb/s
    Channel(s)                  : 2 channels
    Channel layout              : L R
    Sampling rate               : 48.0 kHz
    Frame rate                  : 31.250 FPS (1536 SPF)
    Compression mode            : Lossy
    Stream size                 : 38.7 MiB (2%)
    Title                       : Español latino [CinemaniaHDD]
    Language                    : Spanish
    Service kind                : Complete Main
    Default                     : Yes
    Forced                      : No

    Audio #2
    ID                          : 3
    Format                      : AC-3
    Format/Info                 : Audio Coding 3
    Commercial name             : Dolby Digital
    Codec ID                    : A_AC3
    Duration                    : 42 min 13 s
    Bit rate mode               : Constant
    Bit rate                    : 384 kb/s
    Channel(s)                  : 6 channels
    Channel layout              : L R C LFE Ls Rs
    Sampling rate               : 48.0 kHz
    Frame rate                  : 31.250 FPS (1536 SPF)
    Compression mode            : Lossy
    Stream size                 : 116 MiB (5%)
    Title                       : Inglés [CinemaniaHDD]
    Language                    : English
    Service kind                : Complete Main
    Default                     : No
    Forced                      : No

    Text #1
    ID                          : 4
    Format                      : UTF-8
    Codec ID                    : S_TEXT/UTF8
    Codec ID/Info               : UTF-8 Plain Text
    Duration                    : 24 min 0 s
    Bit rate                    : 0 b/s
    Count of elements           : 3
    Stream size                 : 71.0 Bytes (0%)
    Title                       : Forzados [CinemaniaHDD]
    Language                    : Spanish
    Default                     : Yes
    Forced                      : Yes

    Text #2
    ID                          : 5
    Format                      : UTF-8
    Codec ID                    : S_TEXT/UTF8
    Codec ID/Info               : UTF-8 Plain Text
    Duration                    : 41 min 59 s
    Bit rate                    : 80 b/s
    Count of elements           : 1362
    Stream size                 : 24.6 KiB (0%)
    Title                       : Inglés [CinemaniaHDD]
    Language                    : English
    Default                     : No
    Forced                      : No

    Text #3
    ID                          : 6
    Format                      : UTF-8
    Codec ID                    : S_TEXT/UTF8
    Codec ID/Info               : UTF-8 Plain Text
    Duration                    : 41 min 17 s
    Bit rate                    : 74 b/s
    Count of elements           : 693
    Stream size                 : 22.4 KiB (0%)
    Title                       : Español latino [CinemaniaHDD]
    Language                    : Spanish
    Default                     : No
    Forced                      : No

     

  • Peso: 2.36 GiB Aprox C/U --- 25.8 GiB in 19 chapter

Sinopsis

Descargar The Flash (2019) Temporada 06 CW Web-DL 1080p Latino. Sigue las veloces aventuras de Barry Allen, un joven común y corriente con el deseo latente de ayudar a los demás. Cuando una inesperada partícula aceleradora golpea por accidente a Barry, de pronto se encuentra cargado de un increíble poder para moverse a increíbles velocidades. Mientras Barry siempre ha tenido el alma de un héroe, sus nuevos poderes le han dado la capacidad de actuar como tal.

La sexta temporada de ‘The Flash’ comienza con Iris y Barry teniendo que hacer frente a la muerte de Nora tras la desaparición de su línea temporal y la futura, y en apariencia inevitable, muerte de The Flash. Barry comienza a preparar al equipo para su desaparición, aunque Cisco quiere cambiar el plan para poder salvar a su amigo. Por otra parte, Bloodwork, la versión mutada del doctor Ramsey Rosso, es uno de los principales enemigos de la temporada. A lo largo de la misma, tiene lugar también el crossover anual entre las series de DC, esta vez conocido como Crisis en Tierras Infinitas.

Español Latino EAC3 2.0 CW – Ingles AC3 5.1 CW

Ficha técnica

Video trailer de la película

Enlaces de descarga

Rip de Bluray

Descargar The Flash (2019 – 2020) Temporada 06 CW Web-DL 1080p Latino




Aportes de DPeliculasHDmega la pass es:dpeliculashdmega.org Aportes de CinemaniaHD la pass es:cinemaniahdd.com
Guardado en : Drama , Sci-Fi & Fantasy , Series

Películas relacionadas

descargar The Flash (2019 – 2020) Temporada 06 CW Web-DL 1080p Latino WEBDL 1080p gratis, The Flash (2019 – 2020) Temporada 06 CW Web-DL 1080p Latino WEBDL mega 1 link, The Flash (2019 – 2020) Temporada 06 CW Web-DL 1080p Latino WEBDL serie completa, descargar The Flash (2019 – 2020) Temporada 06 CW Web-DL 1080p Latino WEBDL gratis en mega.

The Flash (2019 – 2020) Temporada 06 CW Web-DL 1080p Latino pelicula full hd, The Flash (2019 – 2020) Temporada 06 CW Web-DL 1080p Latino mega latino, The Flash (2019 – 2020) Temporada 06 CW Web-DL 1080p Latino 4k latino, The Flash (2019 – 2020) Temporada 06 CW Web-DL 1080p Latino pelicula completa, The Flash (2019 – 2020) Temporada 06 CW Web-DL 1080p Latino descargar gratis, descargar The Flash (2019 – 2020) Temporada 06 CW Web-DL 1080p Latino pelicula latino, The Flash (2019 – 2020) Temporada 06 CW Web-DL 1080p Latino 1 link mega, The Flash (2019 – 2020) Temporada 06 CW Web-DL 1080p Latino 1 link google drive, The Flash (2019 – 2020) Temporada 06 CW Web-DL 1080p Latino hd 1080p latino.
Comentarios 4
  • Elías - 30 marzo, 2020

    Hola! Muchas gracias por el aporte, muy bueno. Tengo una consulta, para cuándo estarán los capítulos del 11 en adelante? Que según entiendo ya salieron en Latino… Gracias!

    • CinemaniaHDD - 14 julio, 2020

      en unos momentos…

  • Michael - 17 diciembre, 2019

    es imposible descargar alguna película o serie, se va a la pagina fitnes y de aun nunca aparece el contador.

    • CinemaniaHDD - 26 febrero, 2020

      borre la cache sde su navegador web y desintale los bloqueadores de publicidad que tenga instalados