The Avengers (2012) 4K HDR Latino

2.650 vistas
1 estrella2 estrellas3 estrellas4 estrellas5 estrellas (6 votos, promedio: 4,33 de 5)
Cargando…

Información de The Avengers (2012) 4K HDR Latino

Datos de la película

  • Calidad: 4K HDR
  • Audio: Se especifica abajo de la Sinopsis
  • Subtitulos: Español Latino PGS - Ingles PGS
  • Resolución: 3840x2076p
  • Formato: MKV
  • Codec: H.264
  • Encoder: Dracarys
  • Mediainfo: Clic para Mostrar Datos Ver
  • Format                                   : Matroska
    Format version                           : Version 4 / Version 2
    File size                                : 12.8 GiB
    Duration                                 : 2 h 22 min
    Overall bit rate                         : 12.8 Mb/s
    Movie name                               : CinemaniaHDD.net
    Encoded date                             : UTC 2018-08-08 19:42:32
    Writing application                      : mkvmerge v15.0.0 ('Duel with the Devil') 64-bit
    Writing library                          : libebml v1.3.5 + libmatroska v1.4.5

    Video
    ID                                       : 1
    Format                                   : HEVC
    Format/Info                              : High Efficiency Video Coding
    Format profile                           : Main 10@L5.1@High
    Codec ID                                 : V_MPEGH/ISO/HEVC
    Duration                                 : 2 h 22 min
    Bit rate                                 : 11.1 Mb/s
    Width                                    : 3 840 pixels
    Height                                   : 2 076 pixels
    Display aspect ratio                     : 1.85:1
    Frame rate mode                          : Constant
    Frame rate                               : 23.976 (24000/1001) FPS
    Color space                              : YUV
    Chroma subsampling                       : 4:2:0 (Type 2)
    Bit depth                                : 10 bits
    Bits/(Pixel*Frame)                       : 0.058
    Stream size                              : 11.1 GiB (87%)
    Title                                    : The Avengers (2012) 4K HDR Latino
    Writing library                          : x265 2.8+10-703eade86b53:[Windows][MSVC 1914][64 bit] 10bit
    Encoding settings                        : cpuid=1111039 / frame-threads=6 / numa-pools=36 / wpp / no-pmode / no-pme / no-psnr / no-ssim / log-level=2 / input-csp=1 / input-res=3840x2076 / interlace=0 / total-frames=205611 / level-idc=51 / high-tier=1 / uhd-bd=0 / ref=4 / no-allow-non-conformance / repeat-headers / annexb / aud / hrd / info / hash=0 / no-temporal-layers / no-open-gop / min-keyint=1 / keyint=24 / gop-lookahead=0 / bframes=4 / b-adapt=2 / b-pyramid / bframe-bias=0 / rc-lookahead=25 / lookahead-slices=4 / scenecut=40 / radl=0 / no-intra-refresh / ctu=64 / min-cu-size=8 / rect / no-amp / max-tu-size=32 / tu-inter-depth=1 / tu-intra-depth=1 / limit-tu=0 / rdoq-level=2 / dynamic-rd=0.00 / no-ssim-rd / signhide / no-tskip / nr-intra=0 / nr-inter=0 / no-constrained-intra / no-strong-intra-smoothing / max-merge=3 / limit-refs=3 / limit-modes / me=3 / subme=3 / merange=57 / temporal-mvp / weightp / no-weightb / no-analyze-src-pics / deblock=-3:-3 / no-sao / no-sao-non-deblock / rd=4 / no-early-skip / rskip / no-fast-intra / no-tskip-fast / no-cu-lossless / no-b-intra / no-splitrd-skip / rdpenalty=0 / psy-rd=2.00 / psy-rdoq=1.00 / no-rd-refine / no-lossless / cbqpoffs=0 / crqpoffs=0 / rc=crf / crf=17.0 / qcomp=0.60 / qpstep=4 / stats-write=0 / stats-read=0 / vbv-maxrate=160000 / vbv-bufsize=160000 / vbv-init=0.9 / crf-max=0.0 / crf-min=0.0 / ipratio=1.40 / pbratio=1.30 / aq-mode=1 / aq-strength=1.00 / cutree / zone-count=0 / no-strict-cbr / qg-size=32 / no-rc-grain / qpmax=69 / qpmin=0 / no-const-vbv / sar=1 / overscan=0 / videoformat=5 / range=0 / colorprim=9 / transfer=16 / colormatrix=9 / chromaloc=1 / chromaloc-top=2 / chromaloc-bottom=2 / display-window=0 / master-display=G(13250,34500)B(7500,3000)R(34000,16000)WP(15635,16450)L(10000000,1) / max-cll=0,0 / min-luma=0 / max-luma=1023 / log2-max-poc-lsb=8 / vui-timing-info / vui-hrd-info / slices=1 / no-opt-qp-pps / no-opt-ref-list-length-pps / no-multi-pass-opt-rps / scenecut-bias=0.05 / no-opt-cu-delta-qp / no-aq-motion / hdr / hdr-opt / no-dhdr10-opt / no-idr-recovery-sei / analysis-reuse-level=5 / scale-factor=0 / refine-intra=0 / refine-inter=0 / refine-mv=0 / no-limit-sao / ctu-info=0 / no-lowpass-dct / refine-mv-type=0 / copy-pic=1 / max-ausize-factor=1.0 / no-dynamic-refine / no-single-sei
    Language                                 : English
    Default                                  : Yes
    Forced                                   : No
    Color range                              : Limited
    Color primaries                          : BT.2020
    Transfer characteristics                 : PQ
    Matrix coefficients                      : BT.2020 non-constant
    Mastering display color primaries        : R: x=0.680000 y=0.320000, G: x=0.265000 y=0.690000, B: x=0.150000 y=0.060000, White point: x=0.312700 y=0.329000
    Mastering display luminance              : min: 0.0001 cd/m2, max: 1000.0000 cd/m2

    Audio #1
    ID                                       : 2
    Format                                   : E-AC-3
    Format/Info                              : Enhanced Audio Coding 3
    Format settings, Endianness              : Big
    Codec ID                                 : A_EAC3
    Duration                                 : 2 h 22 min
    Bit rate mode                            : Constant
    Bit rate                                 : 500 b/s
    Channel(s)                               : 6 channels
    Channel positions                        : Front: L C R, Side: L R, LFE
    Sampling rate                            : 48.0 kHz
    Frame rate                               : 187.500 FPS (256 SPF)
    Compression mode                         : Lossy
    Stream size                              : 1.02 GiB (8%)
    Title                                    : E-AC3 7.1
    Language                                 : Spanish
    Service kind                             : Complete Main
    Default                                  : Yes
    Forced                                   : No

    Audio #2
    ID                                       : 3
    Format                                   : AC-3
    Format/Info                              : Audio Coding 3
    Format settings, Endianness              : Big
    Codec ID                                 : A_AC3
    Duration                                 : 2 h 22 min
    Bit rate mode                            : Constant
    Bit rate                                 : 640 kb/s
    Channel(s)                               : 6 channels
    Channel positions                        : Front: L C R, Side: L R, LFE
    Sampling rate                            : 48.0 kHz
    Frame rate                               : 31.250 FPS (1536 SPF)
    Bit depth                                : 16 bits
    Compression mode                         : Lossy
    Stream size                              : 654 MiB (5%)
    Title                                    : AC3 5.1
    Language                                 : English
    Service kind                             : Complete Main
    Default                                  : No
    Forced                                   : No

    Text #1
    ID                                       : 4
    Format                                   : PGS
    Muxing mode                              : zlib
    Codec ID                                 : S_HDMV/PGS
    Codec ID/Info                            : Picture based subtitle format used on BDs/HD-DVDs
    Duration                                 : 2 h 15 min
    Bit rate                                 : 38.5 kb/s
    Count of elements                        : 4086
    Stream size                              : 37.3 MiB (0%)
    Language                                 : English
    Default                                  : No
    Forced                                   : No

    Text #2
    ID                                       : 5
    Format                                   : PGS
    Muxing mode                              : zlib
    Codec ID                                 : S_HDMV/PGS
    Codec ID/Info                            : Picture based subtitle format used on BDs/HD-DVDs
    Duration                                 : 3 min 46 s
    Bit rate                                 : 16.7 kb/s
    Count of elements                        : 62
    Stream size                              : 462 KiB (0%)
    Title                                    : Forzados
    Language                                 : English
    Default                                  : No
    Forced                                   : No

    Text #3
    ID                                       : 6
    Format                                   : PGS
    Muxing mode                              : zlib
    Codec ID                                 : S_HDMV/PGS
    Codec ID/Info                            : Picture based subtitle format used on BDs/HD-DVDs
    Duration                                 : 2 h 15 min
    Bit rate                                 : 30.0 kb/s
    Count of elements                        : 3268
    Stream size                              : 29.1 MiB (0%)
    Language                                 : Spanish
    Default                                  : No
    Forced                                   : No

    Text #4
    ID                                       : 7
    Format                                   : PGS
    Muxing mode                              : zlib
    Codec ID                                 : S_HDMV/PGS
    Codec ID/Info                            : Picture based subtitle format used on BDs/HD-DVDs
    Duration                                 : 2 h 4 min
    Bit rate                                 : 705 b/s
    Count of elements                        : 78
    Stream size                              : 645 KiB (0%)
    Title                                    : Forzados
    Language                                 : Spanish
    Default                                  : Yes
    Forced                                   : Yes

    Menu
    00:00:00.000                             : en:00:00:00.000
    00:08:03.149                             : en:00:08:03.149
    00:11:50.001                             : en:00:11:50.001
    00:15:19.585                             : en:00:15:19.585
    00:20:34.316                             : en:00:20:34.316
    00:23:05.092                             : en:00:23:05.092
    00:29:40.278                             : en:00:29:40.278
    00:37:24.826                             : en:00:37:24.826
    00:42:48.816                             : en:00:42:48.816
    00:50:23.103                             : en:00:50:23.103
    01:01:05.495                             : en:01:01:05.495
    01:14:05.941                             : en:01:14:05.941
    01:28:02.068                             : en:01:28:02.068
    01:38:21.395                             : en:01:38:21.395
    01:45:41.001                             : en:01:45:41.001
    01:51:15.919                             : en:01:51:15.919
    01:57:48.603                             : en:01:57:48.603
    02:04:39.514                             : en:02:04:39.514
    02:09:40.231                             : en:02:09:40.231
    02:13:11.525                             : en:02:13:11.525

  • Peso: 12.8 GiB

Sinopsis

Cuando un enemigo inesperado surge como una gran amenaza para la seguridad mundial, Nick Fury, director de la Agencia SHIELD, decide reclutar a un equipo para salvar al mundo de un desastre casi seguro. Adaptación del cómic de Marvel “Los Vengadores”, el legendario grupo de superhéroes formado por Ironman, Hulk, Thor y el Capitán América entre otros.

 

Latino E-AC3 7.1 Bluray 4K  –  Ingles AC3 5.1 Bluray 4K

Ficha técnica

Video trailer de la película

Enlaces de descarga

Rip de Bluray

Descargar The Avengers (2012) 4K HDR Latino




Aportes de DPeliculasHDmega la pass es:dpeliculashdmega.org Aportes de CinemaniaHD la pass es:cinemaniahdd.com

Películas relacionadas

  • El Justiciero 2 (2018) Full 1080p Latino

    2018
    El Justiciero 2 (2018) Full 1080p Latino

    5.0 2h 0m 2018

    Descargar El Justiciero 2 (2018) Full 1080p Latino, Mega, Google Drive. Robert McCall (Denzel Washington)...

    Director: Donald Sparks

    Género: Acción

    Actores: Wesley Pereira

  • El Justiciero 2 (2018) 1080p Latino

    2018
    El Justiciero 2 (2018) 1080p Latino

    2.5 2h 0m 2018

    Descargar El Justiciero 2 (2018) 1080p Latino, Mega, Google Drive. Robert McCall (Denzel Washington)...

    Director: Donald Sparks

    Género: Acción

    Actores: Wesley Pereira

Comentarios 4
  • Mr. Crudu - 09 agosto, 2018

    tiene HDR?

    • Dracarys - 09 agosto, 2018

      la película es HDR quiere decir que la TV o el Reproductor que uses tiene que tener este codec…

  • CARLOS - 09 agosto, 2018

    PORQUE EN LAS CAPTURAS DE PANTALLA SE VEN OSCURAS ASI ES CALIDAD DE IMAGEN ? O HAY ALGUNA CONFIGURACION PARA QUE SE VEAN MAS NITIDOS LOS COLORES ¡?

    • Dracarys - 09 agosto, 2018

      para que se ven bien tu TV o Reproductor tienen que tener HDR