×

¿Problemas para descargar con Mozilla, EDGE? Deshabilita la opción "Abrir vinculos en una pestaña nueva" tal como lo muestra ésta imagen.

Terminator la salvación (2009) REMUX 1080p Latino

1.429 vistas

Información de Terminator la salvación (2009) REMUX 1080p Latino

Datos de la película

  • Calidad: Full 1080p
  • Audio: Español Latino AC3 5.1 BLURAY - Ingles DTS 5.1 BLURAY
  • Subtitulos: Español Latino SRT- FORZADOS SRT
  • Resolución: 1920x1080p
  • Formato: MKV
  • Codec: H.264
  • Encoder: Dracarys
  • Mediainfo: Clic para Mostrar Datos Ver
  • Format                      : Matroska
    Format version              : Version 4
    File size                   : 22.8 GiB
    Duration                    : 1 h 54 min
    Overall bit rate mode       : Variable
    Overall bit rate            : 28.5 Mb/s
    Movie name                  : CinemaniaHDD.net
    Encoded date                : UTC 2019-09-27 00:17:33
    Writing application         : mkvmerge v35.0.0 ('All The Love In The World') 64-bit
    Writing library             : libebml v1.3.9 + libmatroska v1.5.2

    Video
    ID                          : 1
    Format                      : VC-1
    Format profile              : Advanced@L3
    Codec ID                    : V_MS/VFW/FOURCC / WVC1
    Codec ID/Hint               : Microsoft
    Duration                    : 1 h 54 min
    Bit rate                    : 23.7 Mb/s
    Width                       : 1 920 pixels
    Height                      : 1 080 pixels
    Display aspect ratio        : 16:9
    Frame rate mode             : Constant
    Frame rate                  : 23.976 (24000/1001) FPS
    Color space                 : YUV
    Chroma subsampling          : 4:2:0
    Bit depth                   : 8 bits
    Scan type                   : Progressive
    Compression mode            : Lossy
    Bits/(Pixel*Frame)          : 0.477
    Stream size                 : 19.0 GiB (83%)
    Language                    : English
    Default                     : No
    Forced                      : No

    Audio #1
    ID                          : 2
    Format                      : AC-3
    Format/Info                 : Audio Coding 3
    Commercial name             : Dolby Digital
    Codec ID                    : A_AC3
    Duration                    : 1 h 54 min
    Bit rate mode               : Constant
    Bit rate                    : 640 kb/s
    Channel(s)                  : 6 channels
    Channel layout              : L R C LFE Ls Rs
    Sampling rate               : 48.0 kHz
    Frame rate                  : 31.250 FPS (1536 SPF)
    Bit depth                   : 16 bits
    Compression mode            : Lossy
    Stream size                 : 525 MiB (2%)
    Language                    : Spanish
    Service kind                : Complete Main
    Default                     : Yes
    Forced                      : No

    Audio #2
    ID                          : 3
    Format                      : DTS XLL
    Format/Info                 : Digital Theater Systems
    Commercial name             : DTS-HD Master Audio
    Codec ID                    : A_DTS
    Duration                    : 1 h 54 min
    Bit rate mode               : Variable
    Bit rate                    : 4 140 kb/s
    Channel(s)                  : 6 channels
    Channel layout              : C L R Ls Rs LFE
    Sampling rate               : 48.0 kHz
    Frame rate                  : 93.750 FPS (512 SPF)
    Bit depth                   : 24 bits
    Compression mode            : Lossless
    Stream size                 : 3.31 GiB (15%)
    Language                    : English
    Default                     : No
    Forced                      : No

    Text #1
    ID                          : 4
    Format                      : PGS
    Muxing mode                 : zlib
    Codec ID                    : S_HDMV/PGS
    Codec ID/Info               : Picture based subtitle format used on BDs/HD-DVDs
    Duration                    : 1 h 54 min
    Bit rate                    : 16.5 kb/s
    Count of elements           : 1673
    Stream size                 : 13.5 MiB (0%)
    Language                    : Spanish
    Default                     : No
    Forced                      : No

    Text #2
    ID                          : 5
    Format                      : UTF-8
    Codec ID                    : S_TEXT/UTF8
    Codec ID/Info               : UTF-8 Plain Text
    Duration                    : 1 h 53 min
    Bit rate                    : 31 b/s
    Count of elements           : 834
    Stream size                 : 25.9 KiB (0%)
    Language                    : Spanish
    Default                     : No
    Forced                      : No

    Menu
    00:00:00.000                : en:Chapter 01
    00:05:25.992                : en:Chapter 02
    00:10:10.318                : en:Chapter 03
    00:15:02.860                : en:Chapter 04
    00:17:59.244                : en:Chapter 05
    00:21:00.801                : en:Chapter 06
    00:25:41.498                : en:Chapter 07
    00:30:44.342                : en:Chapter 08
    00:34:50.671                : en:Chapter 09
    00:40:29.802                : en:Chapter 10
    00:44:01.096                : en:Chapter 11
    00:46:12.394                : en:Chapter 12
    00:51:56.279                : en:Chapter 13
    00:53:44.262                : en:Chapter 14
    00:56:13.870                : en:Chapter 15
    01:02:38.671                : en:Chapter 16
    01:07:04.228                : en:Chapter 17
    01:10:37.858                : en:Chapter 18
    01:14:52.321                : en:Chapter 19
    01:19:20.046                : en:Chapter 20
    01:22:42.165                : en:Chapter 21
    01:27:02.592                : en:Chapter 22
    01:30:30.174                : en:Chapter 23
    01:34:34.251                : en:Chapter 24
    01:37:18.958                : en:Chapter 25
    01:41:12.483                : en:Chapter 26
    01:46:39.101                : en:Chapter 27
    01:54:35.368                : en:Chapter 28

  • Peso: 22.8 GiB

Sinopsis

Nueva entrega de la saga de Terminator, que transcurre en un post-apocalíptico 2018, tras el día del Juicio Final. John Connor es el hombre destinado a liderar la resistencia de los humanos contra Skynet y su ejército de Terminators. Pero el futuro en el que a Connor le enseñaron a creer se ve alterado en parte por la aparición de Marcus Wright, un extraño cuyo último recuerdo es haber estado en el corredor de la muerte, y que afirma haber estado con Kyle Reese, el padre de John. Connor debe decidir si Marcus ha sido enviado desde el futuro o rescatado del pasado, todo en una carrera contrareloj mientras la Resistencia prepara su ataque final contra el corazón del centro de operaciones de Skynet.

RESUBIDO!!

Ficha técnica

Video trailer de la película

Enlaces de descarga

Rip de Bluray

Descargar Terminator la salvación (2009) REMUX 1080p Latino




Aportes de DPeliculasHDmega la pass es:dpeliculashdmega.org Aportes de CinemaniaHD la pass es:cinemaniahdd.com
Guardado en : Acción , Ciencia ficción , Remux , Suspenso

Películas relacionadas

  • Shotgun Wedding (2022) AMZN WEB-DL 1080p Latino

    Shotgun Wedding (2022) AMZN WEB-DL 1080p Latino

    2022
    Shotgun Wedding (2022) AMZN WEB-DL 1080p Latino

    1h 41m 2022

    Darcy y Tom reúnen a sus familias para la boda de destino definitiva, pero cuando toman como rehenes...

    Director: Jason Moore

    Género: Acción

    Actores: Steve Coulter

  • M3GAN (2023) AMZN WEB-DL 4K UHD HDR Latino

    M3GAN (2023) AMZN WEB-DL 4K UHD HDR Latino

    2022
    M3GAN (2023) AMZN WEB-DL 4K UHD HDR Latino

    1h 42m 2022

    Descargar M3GAN (2023) AMZN WEB-DL 4K UHD HDR Latino. Cuando Gemma se convierte en la cuidadora de su...

    Director: Stephen W. Moore

    Género: 4K HDR

    Actores: Violet McGraw

  • M3GAN (2022) MA WEB-DL 1080p Latino

    M3GAN (2022) MA WEB-DL 1080p Latino

    2022
    M3GAN (2022) MA WEB-DL 1080p Latino

    1h 42m 2022

    Descargar M3GAN (2022) MA WEB-DL 1080p Latino. Cuando Gemma se convierte en la cuidadora de su sobrina...

    Director: Stephen W. Moore

    Género: Ciencia ficción

    Actores: Violet McGraw

  • Mar de sangre (2022) WEB-DL 1080p Latino

    Mar de sangre (2022) WEB-DL 1080p Latino

    2022
    Mar de sangre (2022) WEB-DL 1080p Latino

    1h 27m 2022

    Descargar Mar de sangre (2022) WEB-DL 1080p Latino. Un grupo de amigos que disfrutan de un fin de semana...

    Director: James Nunn

    Género: Acción

    Actores: Thomas Michael Flynn

descargar Terminator la salvación (2009) REMUX 1080p Latino Full 1080p 1080p gratis, Terminator la salvación (2009) REMUX 1080p Latino Full 1080p mega 1 link, Terminator la salvación (2009) REMUX 1080p Latino Full 1080p pelicula completa, descargar Terminator la salvación (2009) REMUX 1080p Latino Full 1080p gratis en mega.

Terminator la salvación (2009) REMUX 1080p Latino pelicula full hd, Terminator la salvación (2009) REMUX 1080p Latino mega latino, Terminator la salvación (2009) REMUX 1080p Latino 4k latino, Terminator la salvación (2009) REMUX 1080p Latino pelicula completa, Terminator la salvación (2009) REMUX 1080p Latino descargar gratis, descargar Terminator la salvación (2009) REMUX 1080p Latino pelicula latino, Terminator la salvación (2009) REMUX 1080p Latino 1 link mega, Terminator la salvación (2009) REMUX 1080p Latino 1 link google drive, Terminator la salvación (2009) REMUX 1080p Latino hd 1080p latino.
Comentarios 0