Terminator 3 La rebelión de las máquinas (2003) REMUX 1080p Latino

1.292 vistas
1 estrella2 estrellas3 estrellas4 estrellas5 estrellas (2 votos, promedio: 3,00 de 5)
Cargando...

Información de Terminator 3 La rebelión de las máquinas (2003) REMUX 1080p Latino

Datos de la película

  • Calidad: Full 1080p
  • Audio: Español Latino AC3 5.1 BLURAY - Ingles DTS 5.1 BLURAY
  • Subtitulos: Español Latino SRT- FORZADOS SRT
  • Resolución: 1920x1080p
  • Formato: MKV
  • Codec: H.264
  • Encoder: Dracarys
  • Mediainfo: Clic para Mostrar Datos Ver
  • Format                      : Matroska
    Format version              : Version 4
    File size                   : 22.3 GiB
    Duration                    : 1 h 49 min
    Overall bit rate mode       : Variable
    Overall bit rate            : 29.2 Mb/s
    Movie name                  : CinemaniaHDD.net
    Encoded date                : UTC 2019-09-27 00:14:10
    Writing application         : mkvmerge v35.0.0 ('All The Love In The World') 64-bit
    Writing library             : libebml v1.3.9 + libmatroska v1.5.2

    Video
    ID                          : 1
    Format                      : AVC
    Format/Info                 : Advanced Video Codec
    Format profile              : High@L4.1
    Format settings             : CABAC / 4 Ref Frames
    Format settings, CABAC      : Yes
    Format settings, ReFrames   : 4 frames
    Codec ID                    : V_MPEG4/ISO/AVC
    Duration                    : 1 h 49 min
    Bit rate mode               : Variable
    Bit rate                    : 26.7 Mb/s
    Maximum bit rate            : 28.5 Mb/s
    Width                       : 1 920 pixels
    Height                      : 1 080 pixels
    Display aspect ratio        : 16:9
    Frame rate mode             : Constant
    Frame rate                  : 23.976 (24000/1001) FPS
    Color space                 : YUV
    Chroma subsampling          : 4:2:0
    Bit depth                   : 8 bits
    Scan type                   : Progressive
    Bits/(Pixel*Frame)          : 0.537
    Stream size                 : 20.3 GiB (91%)
    Language                    : English
    Default                     : Yes
    Forced                      : No
    Color range                 : Limited
    Color primaries             : BT.709
    Transfer characteristics    : BT.709
    Matrix coefficients         : BT.709

    Audio #1
    ID                          : 2
    Format                      : AC-3
    Format/Info                 : Audio Coding 3
    Codec ID                    : A_AC3
    Duration                    : 1 h 49 min
    Bit rate                    : 640 kb/s
    Channel(s)                  : 6 channels
    Sampling rate               : 48.0 kHz
    Frame rate                  : 31.250 FPS (1536 SPF)
    Compression mode            : Lossy
    Stream size                 : 499 MiB (2%)
    Language                    : Spanish
    Default                     : Yes
    Forced                      : No

    Audio #2
    ID                          : 3
    Format                      : MLP FBA
    Format/Info                 : Meridian Lossless Packing FBA
    Commercial name             : Dolby TrueHD
    Codec ID                    : A_TRUEHD
    Duration                    : 1 h 49 min
    Bit rate mode               : Variable
    Bit rate                    : 1 831 kb/s
    Maximum bit rate            : 3 564 kb/s
    Channel(s)                  : 6 channels
    Channel layout              : L R C LFE Ls Rs
    Sampling rate               : 48.0 kHz
    Frame rate                  : 1 200.000 FPS (40 SPF)
    Compression mode            : Lossless
    Stream size                 : 1.40 GiB (6%)
    Language                    : English
    Default                     : No
    Forced                      : No

    Text #1
    ID                          : 4
    Format                      : PGS
    Muxing mode                 : zlib
    Codec ID                    : S_HDMV/PGS
    Codec ID/Info               : Picture based subtitle format used on BDs/HD-DVDs
    Duration                    : 1 h 40 min
    Bit rate                    : 19.4 kb/s
    Count of elements           : 1616
    Stream size                 : 13.9 MiB (0%)
    Language                    : Spanish
    Default                     : No
    Forced                      : No

    Text #2
    ID                          : 5
    Format                      : UTF-8
    Codec ID                    : S_TEXT/UTF8
    Codec ID/Info               : UTF-8 Plain Text
    Duration                    : 1 h 40 min
    Bit rate                    : 34 b/s
    Count of elements           : 808
    Stream size                 : 25.1 KiB (0%)
    Language                    : Spanish
    Default                     : No
    Forced                      : No

    Menu
    00:00:00.000                : en:Chapter 01
    00:03:36.549                : en:Chapter 02
    00:05:42.425                : en:Chapter 03
    00:09:12.134                : en:Chapter 04
    00:11:24.266                : en:Chapter 05
    00:16:18.894                : en:Chapter 06
    00:20:21.887                : en:Chapter 07
    00:22:57.417                : en:Chapter 08
    00:26:15.574                : en:Chapter 09
    00:29:32.020                : en:Chapter 10
    00:32:27.695                : en:Chapter 11
    00:35:15.029                : en:Chapter 12
    00:38:15.042                : en:Chapter 13
    00:42:16.951                : en:Chapter 14
    00:43:49.376                : en:Chapter 15
    00:48:27.821                : en:Chapter 16
    00:51:47.687                : en:Chapter 17
    00:53:56.233                : en:Chapter 18
    00:57:35.702                : en:Chapter 19
    01:00:07.103                : en:Chapter 20
    01:05:47.777                : en:Chapter 21
    01:08:33.275                : en:Chapter 22
    01:10:48.827                : en:Chapter 23
    01:13:57.433                : en:Chapter 24
    01:18:25.701                : en:Chapter 25
    01:21:15.120                : en:Chapter 26
    01:24:50.085                : en:Chapter 27
    01:28:58.499                : en:Chapter 28
    01:31:36.991                : en:Chapter 29
    01:33:42.366                : en:Chapter 30
    01:35:41.485                : en:Chapter 31
    01:39:03.270                : en:Chapter 32
    01:41:49.937                : en:Chapter 33

  • Peso: 22.3 GiB

Sinopsis

Ha pasado una década desde que John Connor -Nick Stahl- salvara a la humanidad de la destrucción. En la actualidad John tiene 25 años y vive en la clandestinidad: no hay ninguna prueba documental de su existencia. Así evita ser rastreado por Skynet -la sofisticada corporación de máquinas que una vez intentó acabar con su vida-. Pero, ahora, desde el futuro, ha sido enviado el T-X (Kristanna Loken), la máquina destructora cyborg más desarrollada de Skynet. Su misión es completar el trabajo que no pudo terminar su predecesor, el T-1000. El T-X es una máquina tan implacable como bello su aspecto humano. Ahora la única esperanza de sobrevivir para Connnor es Terminator.

RESUBIDO!!

Ficha técnica

Video trailer de la película

Enlaces de descarga

Rip de Bluray

Descargar Terminator 3 La rebelión de las máquinas (2003) REMUX 1080p Latino




Aportes de DPeliculasHDmega la pass es:dpeliculashdmega.org Aportes de CinemaniaHD la pass es:cinemaniahdd.com
Guardado en : Acción , Ciencia ficción , Suspenso

Películas relacionadas

Terminator 3 La rebelión de las máquinas (2003) REMUX 1080p Latino pelicula full hd, Terminator 3 La rebelión de las máquinas (2003) REMUX 1080p Latino mega latino, Terminator 3 La rebelión de las máquinas (2003) REMUX 1080p Latino 4k latino, Terminator 3 La rebelión de las máquinas (2003) REMUX 1080p Latino pelicula completa, Terminator 3 La rebelión de las máquinas (2003) REMUX 1080p Latino descargar gratis, descargar Terminator 3 La rebelión de las máquinas (2003) REMUX 1080p Latino pelicula latino, Terminator 3 La rebelión de las máquinas (2003) REMUX 1080p Latino 1 link mega, Terminator 3 La rebelión de las máquinas (2003) REMUX 1080p Latino 1 link google drive, Terminator 3 La rebelión de las máquinas (2003) REMUX 1080p Latino hd 1080p latino.
Comentarios 0