Tarzan (1999) Full 1080p Latino

1.728 vistas
1 estrella2 estrellas3 estrellas4 estrellas5 estrellas (4 votos, promedio: 5,00 de 5)
Cargando…

Información de Tarzan (1999) Full 1080p Latino

Datos de la película

  • Calidad: Full 1080p
  • Audio: Español Latino AC3 5.1 BLURAY - Ingles DTS 5.1 BLURAY
  • Subtitulos: Español Latino PGS - Ingles PGS
  • Resolución: 1920x1080p
  • Formato: MKV
  • Codec: H.264
  • Encoder: Dracarys
  • Mediainfo: Clic para Mostrar Datos Ver
  • Format                                   : Matroska
    Format version                           : Version 4 / Version 2
    File size                                : 4.04 GiB
    Duration                                 : 1 h 28 min
    Overall bit rate                         : 6 553 kb/s
    Movie name                               : CinemaniaHDD.net
    Encoded date                             : UTC 2018-08-03 04:14:38 / UTC 2018-07-31T19:26:58Z
    Writing application                      : mkvmerge v15.0.0 ('Duel with the Devil') 64-bit
    Writing library                          : libebml v1.3.5 + libmatroska v1.4.5 / Lavf57.7.2

    Video
    ID                                       : 1
    Format                                   : AVC
    Format/Info                              : Advanced Video Codec
    Format profile                           : High@L4.1
    Format settings                          : CABAC / 4 Ref Frames
    Format settings, CABAC                   : Yes
    Format settings, RefFrames               : 4 frames
    Codec ID                                 : V_MPEG4/ISO/AVC
    Duration                                 : 1 h 28 min
    Bit rate                                 : 4 273 kb/s
    Width                                    : 1 920 pixels
    Height                                   : 1 080 pixels
    Display aspect ratio                     : 16:9
    Frame rate mode                          : Constant
    Frame rate                               : 23.976 (24000/1001) FPS
    Color space                              : YUV
    Chroma subsampling                       : 4:2:0
    Bit depth                                : 8 bits
    Scan type                                : Progressive
    Bits/(Pixel*Frame)                       : 0.086
    Stream size                              : 2.64 GiB (65%)
    Title                                    : Tarzan (1999) Full 1080p Latino
    Writing library                          : x264 core 148 r2708 86b7198
    Encoding settings                        : cabac=1 / ref=4 / deblock=1:0:0 / analyse=0x3:0x133 / me=esa / subme=10 / psy=1 / psy_rd=1.00:0.00 / mixed_ref=1 / me_range=24 / chroma_me=1 / trellis=2 / 8x8dct=1 / cqm=0 / deadzone=21,11 / fast_pskip=1 / chroma_qp_offset=-2 / threads=34 / lookahead_threads=5 / sliced_threads=0 / nr=0 / decimate=1 / interlaced=0 / bluray_compat=0 / constrained_intra=0 / bframes=8 / b_pyramid=2 / b_adapt=2 / b_bias=0 / direct=3 / weightb=1 / open_gop=0 / weightp=2 / keyint=240 / keyint_min=24 / scenecut=40 / intra_refresh=0 / rc_lookahead=60 / rc=crf / mbtree=1 / crf=20.0 / qcomp=0.60 / qpmin=0 / qpmax=69 / qpstep=4 / vbv_maxrate=62500 / vbv_bufsize=78125 / crf_max=0.0 / nal_hrd=none / filler=0 / ip_ratio=1.40 / aq=1:1.00
    Language                                 : English
    Default                                  : Yes
    Forced                                   : No
    Color range                              : Limited
    Color primaries                          : BT.709
    Transfer characteristics                 : BT.709
    Matrix coefficients                      : BT.709
    Statistics Tags Issue                    : mkvmerge v15.0.0 ('Duel with the Devil') 64-bit 2018-08-03 04:14:38 / mkvmerge v15.0.0 ('Duel with the Devil') 64-bit 2018-08-03 04:14:38 / UTC 2018-07-31T19:26:58Z
    FromStats_BitRate                        : 4312775
    FromStats_Duration                       : 01:28:22.256000000
    FromStats_FrameCount                     : 127127
    FromStats_StreamSize                     : 2858429708

    Audio #1
    ID                                       : 2
    Format                                   : AC-3
    Format/Info                              : Audio Coding 3
    Format settings, Endianness              : Big
    Codec ID                                 : A_AC3
    Duration                                 : 1 h 28 min
    Bit rate mode                            : Constant
    Bit rate                                 : 640 kb/s
    Channel(s)                               : 5 channels
    Channel positions                        : Front: L C R, Side: L R
    Sampling rate                            : 48.0 kHz
    Frame rate                               : 31.250 FPS (1536 SPF)
    Bit depth                                : 16 bits
    Compression mode                         : Lossy
    Stream size                              : 405 MiB (10%)
    Language                                 : Spanish
    Service kind                             : Complete Main
    Default                                  : Yes
    Forced                                   : No
    Statistics Tags Issue                    : mkvmerge v15.0.0 ('Duel with the Devil') 64-bit 2018-08-03 04:14:38 / mkvmerge v15.0.0 ('Duel with the Devil') 64-bit 2018-08-03 04:14:38 / UTC 2018-07-31T19:26:58Z
    FromStats_BitRate                        : 640000
    FromStats_Duration                       : 01:28:21.760000000
    FromStats_FrameCount                     : 165680
    FromStats_StreamSize                     : 424140800

    Audio #2
    ID                                       : 3
    Format                                   : DTS
    Format/Info                              : Digital Theater Systems
    Mode                                     : 16
    Format settings, Endianness              : Big
    Codec ID                                 : A_DTS
    Duration                                 : 1 h 28 min
    Bit rate mode                            : Constant
    Bit rate                                 : 1 509 kb/s
    Channel(s)                               : 5 channels
    Channel positions                        : Front: L C R, Side: L R
    Sampling rate                            : 48.0 kHz
    Frame rate                               : 93.750 FPS (512 SPF)
    Bit depth                                : 24 bits
    Compression mode                         : Lossy
    Stream size                              : 954 MiB (23%)
    Language                                 : English
    Default                                  : No
    Forced                                   : No
    Statistics Tags Issue                    : mkvmerge v15.0.0 ('Duel with the Devil') 64-bit 2018-08-03 04:14:38 / mkvmerge v15.0.0 ('Duel with the Devil') 64-bit 2018-08-03 04:14:38 / UTC 2018-07-31T19:26:58Z
    FromStats_BitRate                        : 1508999
    FromStats_Duration                       : 01:28:21.750000000
    FromStats_FrameCount                     : 497039
    FromStats_StreamSize                     : 1000042468

    Text #1
    ID                                       : 4
    Format                                   : PGS
    Muxing mode                              : zlib
    Codec ID                                 : S_HDMV/PGS
    Codec ID/Info                            : Picture based subtitle format used on BDs/HD-DVDs
    Language                                 : English
    Default                                  : No
    Forced                                   : No
    Statistics Tags Issue                    : mkvmerge v15.0.0 ('Duel with the Devil') 64-bit 2018-08-03 04:14:38 / mkvmerge v15.0.0 ('Duel with the Devil') 64-bit 2018-08-03 04:14:38 / UTC 2018-07-31T19:26:58Z
    FromStats_BitRate                        : 56720
    FromStats_Duration                       : 01:27:50.515000000
    FromStats_FrameCount                     : 2378
    FromStats_StreamSize                     : 37368180

    Text #2
    ID                                       : 5
    Format                                   : PGS
    Muxing mode                              : zlib
    Codec ID                                 : S_HDMV/PGS
    Codec ID/Info                            : Picture based subtitle format used on BDs/HD-DVDs
    Language                                 : Spanish
    Default                                  : No
    Forced                                   : No
    Statistics Tags Issue                    : mkvmerge v15.0.0 ('Duel with the Devil') 64-bit 2018-08-03 04:14:38 / mkvmerge v15.0.0 ('Duel with the Devil') 64-bit 2018-08-03 04:14:38 / UTC 2018-07-31T19:26:58Z
    FromStats_BitRate                        : 39962
    FromStats_Duration                       : 01:21:14.954000000
    FromStats_FrameCount                     : 1620
    FromStats_StreamSize                     : 24352178

    Text #3
    ID                                       : 6
    Format                                   : PGS
    Muxing mode                              : zlib
    Codec ID                                 : S_HDMV/PGS
    Codec ID/Info                            : Picture based subtitle format used on BDs/HD-DVDs
    Title                                    : Forzados
    Language                                 : Spanish
    Default                                  : Yes
    Forced                                   : Yes
    Statistics Tags Issue                    : mkvmerge v15.0.0 ('Duel with the Devil') 64-bit 2018-08-03 04:14:38 / mkvmerge v15.0.0 ('Duel with the Devil') 64-bit 2018-08-03 04:14:38 / UTC 2018-07-31T19:26:58Z
    FromStats_BitRate                        : 109553
    FromStats_Duration                       : 01:28:18.460000000
    FromStats_FrameCount                     : 2996
    FromStats_StreamSize                     : 72557860

    Menu
    00:00:00.000                             : :Chapter 1
    00:03:21.326                             : :Chapter 2
    00:06:08.076                             : :Chapter 3
    00:08:16.496                             : :Chapter 4
    00:11:01.035                             : :Chapter 5
    00:12:38.758                             : :Chapter 6
    00:14:19.776                             : :Chapter 7
    00:16:45.755                             : :Chapter 8
    00:18:01.581                             : :Chapter 9
    00:18:59.055                             : :Chapter 10
    00:20:39.864                             : :Chapter 11
    00:22:39.942                             : :Chapter 12
    00:25:27.234                             : :Chapter 13
    00:26:20.871                             : :Chapter 14
    00:30:41.673                             : :Chapter 15
    00:33:49.319                             : :Chapter 16
    00:34:50.714                             : :Chapter 17
    00:37:28.163                             : :Chapter 18
    00:41:34.325                             : :Chapter 19
    00:45:38.736                             : :Chapter 20
    00:46:48.306                             : :Chapter 21
    00:48:33.911                             : :Chapter 22
    00:50:14.803                             : :Chapter 23
    00:54:08.954                             : :Chapter 24
    00:56:52.326                             : :Chapter 25
    00:57:53.637                             : :Chapter 26
    01:01:30.437                             : :Chapter 27
    01:03:23.842                             : :Chapter 28
    01:07:14.405                             : :Chapter 29
    01:09:20.156                             : :Chapter 30
    01:11:42.423                             : :Chapter 31
    01:14:55.866                             : :Chapter 32
    01:16:37.885                             : :Chapter 33
    01:19:08.369                             : :Chapter 34
    01:21:30.677                             : :Chapter 35
    01:22:25.691                             : :Chapter 36

  • Peso: 4.04 GiB

Sinopsis

Cuando Kala, una gorila hembra, encuentra un niño huérfano en la jungla, decide adoptarlo como su propio hijo a pesar de la oposición de Kerchak, el jefe de la manada. Junto a Terk, un gracioso mono y Tantor, un elefante algo neurótico, Tazán crecerá en la jungla desarrollando los instintos de los animales y aprendiendo a deslizarse entre los árboles a velocidad de vértigo. Pero cuando una expedición se adentra en la jungla y Tarzán conoce a Jane, descubrirá quién es realmente y cuál es el mundo al que pertenece…

Ficha técnica

Video trailer de la película

Enlaces de descarga

Rip de Bluray

Descargar Tarzan (1999) Full 1080p Latino




Aportes de DPeliculasHDmega la pass es:dpeliculashdmega.org Aportes de CinemaniaHD la pass es:cinemaniahdd.com

Películas relacionadas

  • Godzilla (2014) 1080p Latino

    2014
    Godzilla (2014) 1080p Latino

    0.0 2h 3m 2014

    Descargar Godzilla (2014) 1080p Latino, Mega, Google Drive, Torrent. Gareth Edwards dirige este "reboot",...

    Director: Jessica Clothier

    Género: Acción

    Actores: Yuki Morita

  • Godzilla (2014) Full 1080p Latino

    2014
    Godzilla (2014) Full 1080p Latino

    4.2 2h 3m 2014

    Descargar Godzilla (2014) Full 1080p Latino, Mega, Google Drive, Torrent. Gareth Edwards dirige este...

    Director: Jessica Clothier

    Género: Acción

    Actores: Yuki Morita

  • Un pequeño favor (2018) Full 1080p Latino

    2018
    Un pequeño favor (2018) Full 1080p Latino

    5.0 1h 57m 2018

    Descargar Un pequeño favor (2018) Full 1080p Latino, Mega, Google Drive, Torrent. Stephanie es una joven...

    Director: Paul Feig

    Género: Crimen

    Actores: Zach Smadu

Comentarios 0