Soy leyenda (2007) Theatrical Cut Full 1080p Latino

2.272 vistas
1 estrella2 estrellas3 estrellas4 estrellas5 estrellas (6 votos, promedio: 3,67 de 5)
Cargando…

Información de Soy leyenda (2007) Theatrical Cut Full 1080p Latino

Datos de la película

  • Calidad: Full 1080p
  • Audio: Español Latino AC3 5.1 BLURAY - Ingles AC3 5.1 BLURAY
  • Subtitulos: Español Latino SRT
  • Resolución: 1920X1080p
  • Formato: MKV
  • Codec: H.264
  • Encoder: Dracarys
  • Mediainfo: Clic para Mostrar Datos Ver
  • Format                                   : Matroska
    Format version                           : Version 4 / Version 2
    File size                                : 3.38 GiB
    Duration                                 : 1 h 43 min
    Overall bit rate                         : 4 660 kb/s
    Movie name                               : CinemaniaHDD.com
    Encoded date                             : UTC 2018-01-12 05:24:36 / UTC 2017-12-16T08:16:09Z
    Writing application                      : mkvmerge v15.0.0 ('Duel with the Devil') 64-bit
    Writing library                          : libebml v1.3.5 + libmatroska v1.4.5 / Lavf57.7.2

    Video
    ID                                       : 1
    Format                                   : AVC
    Format/Info                              : Advanced Video Codec
    Format profile                           : [email protected]
    Format settings                          : CABAC / 4 Ref Frames
    Format settings, CABAC                   : Yes
    Format settings, RefFrames               : 4 frames
    Codec ID                                 : V_MPEG4/ISO/AVC
    Duration                                 : 1 h 43 min
    Bit rate                                 : 3 287 kb/s
    Width                                    : 1 920 pixels
    Height                                   : 1 080 pixels
    Display aspect ratio                     : 16:9
    Frame rate mode                          : Constant
    Frame rate                               : 23.976 (24000/1001) FPS
    Color space                              : YUV
    Chroma subsampling                       : 4:2:0
    Bit depth                                : 8 bits
    Scan type                                : Progressive
    Bits/(Pixel*Frame)                       : 0.066
    Stream size                              : 2.38 GiB (71%)
    Title                                    : Soy leyenda (2007) Theatrical Cut Full 1080p Latino
    Writing library                          : x264 core 148 r2708 86b7198
    Encoding settings                        : cabac=1 / ref=4 / deblock=1:0:0 / analyse=0x3:0x133 / me=esa / subme=10 / psy=1 / psy_rd=1.00:0.00 / mixed_ref=1 / me_range=24 / chroma_me=1 / trellis=2 / 8x8dct=1 / cqm=0 / deadzone=21,11 / fast_pskip=1 / chroma_qp_offset=-2 / threads=34 / lookahead_threads=5 / sliced_threads=0 / nr=0 / decimate=1 / interlaced=0 / bluray_compat=0 / constrained_intra=0 / bframes=8 / b_pyramid=2 / b_adapt=2 / b_bias=0 / direct=3 / weightb=1 / open_gop=0 / weightp=2 / keyint=240 / keyint_min=24 / scenecut=40 / intra_refresh=0 / rc_lookahead=60 / rc=crf / mbtree=1 / crf=20.0 / qcomp=0.60 / qpmin=0 / qpmax=69 / qpstep=4 / vbv_maxrate=62500 / vbv_bufsize=78125 / crf_max=0.0 / nal_hrd=none / filler=0 / ip_ratio=1.40 / aq=1:1.00
    Language                                 : English
    Default                                  : Yes
    Forced                                   : No
    Color range                              : Limited
    Color primaries                          : BT.709
    Transfer characteristics                 : BT.709
    Matrix coefficients                      : BT.709
    Statistics Tags Issue                    : mkvmerge v15.0.0 ('Duel with the Devil') 64-bit 2018-01-12 05:24:36 / mkvmerge v15.0.0 ('Duel with the Devil') 64-bit 2018-01-12 05:24:36 / UTC 2017-12-16T08:16:09Z
    FromStats_BitRate                        : 3532339
    FromStats_Duration                       : 01:40:31.651000000
    FromStats_FrameCount                     : 144615
    FromStats_StreamSize                     : 2663230164

    Audio #1
    ID                                       : 2
    Format                                   : AC-3
    Format/Info                              : Audio Coding 3
    Format settings, Endianness              : Big
    Codec ID                                 : A_AC3
    Duration                                 : 1 h 43 min
    Bit rate mode                            : Constant
    Bit rate                                 : 640 kb/s
    Channel(s)                               : 6 channels
    Channel positions                        : Front: L C R, Side: L R, LFE
    Sampling rate                            : 48.0 kHz
    Frame rate                               : 31.250 FPS (1536 SPF)
    Bit depth                                : 16 bits
    Compression mode                         : Lossy
    Stream size                              : 475 MiB (14%)
    Language                                 : Spanish
    Service kind                             : Complete Main
    Default                                  : Yes
    Forced                                   : No
    Statistics Tags Issue                    : mkvmerge v15.0.0 ('Duel with the Devil') 64-bit 2018-01-12 05:24:36 / mkvmerge v15.0.0 ('Duel with the Devil') 64-bit 2018-01-12 05:24:36 / UTC 2017-12-16T08:16:09Z
    FromStats_BitRate                        : 640000
    FromStats_Duration                       : 01:40:30.944000000
    FromStats_FrameCount                     : 188467
    FromStats_StreamSize                     : 482475520

    Audio #2
    ID                                       : 3
    Format                                   : AC-3
    Format/Info                              : Audio Coding 3
    Format settings, Endianness              : Big
    Codec ID                                 : A_AC3
    Duration                                 : 1 h 43 min
    Bit rate mode                            : Constant
    Bit rate                                 : 640 kb/s
    Channel(s)                               : 6 channels
    Channel positions                        : Front: L C R, Side: L R, LFE
    Sampling rate                            : 48.0 kHz
    Frame rate                               : 31.250 FPS (1536 SPF)
    Bit depth                                : 16 bits
    Compression mode                         : Lossy
    Stream size                              : 475 MiB (14%)
    Language                                 : English
    Service kind                             : Complete Main
    Default                                  : No
    Forced                                   : No
    Statistics Tags Issue                    : mkvmerge v15.0.0 ('Duel with the Devil') 64-bit 2018-01-12 05:24:36 / mkvmerge v15.0.0 ('Duel with the Devil') 64-bit 2018-01-12 05:24:36 / UTC 2017-12-16T08:16:09Z
    FromStats_BitRate                        : 640000
    FromStats_Duration                       : 01:40:31.680000000
    FromStats_FrameCount                     : 188490
    FromStats_StreamSize                     : 482534400

    Text
    ID                                       : 4
    Format                                   : UTF-8
    Codec ID                                 : S_TEXT/UTF8
    Codec ID/Info                            : UTF-8 Plain Text
    Language                                 : Spanish
    Default                                  : No
    Forced                                   : No
    Statistics Tags Issue                    : mkvmerge v15.0.0 ('Duel with the Devil') 64-bit 2018-01-12 05:24:36 / mkvmerge v15.0.0 ('Duel with the Devil') 64-bit 2018-01-12 05:24:36 / UTC 2017-12-16T08:16:09Z
    FromStats_BitRate                        : 28
    FromStats_Duration                       : 01:43:45.344000000
    FromStats_FrameCount                     : 665
    FromStats_StreamSize                     : 22391

     

  • Peso: 3.38 GiB

Sinopsis

Año 2012. Robert Neville es el último hombre vivo que hay sobre la Tierra, pero no está solo. Los demás seres humanos se han convertido en unos mutantes nocturnos llamados “Darkseekers” y todos ansían beber su sangre. Durante el día vive en estado de alerta, como un cazador, y busca a los muertos vivientes mientras duermen; pero durante la noche debe esconderse de ellos y esperar el amanecer. Esta pesadilla empezó hace tres años: Neville era un brillante científico, pero no pudo impedir la expansión de un terrible virus creado por el hombre. Él ha sobrevivido porque es inmune al virus; todos los días envía mensajes por radio con la esperanza de que haya otros supervivientes, pero es inútil. Lo único que puede hacer es buscar una fórmula que le permita utilizar su sangre inmune para devolverles a los hombres su naturaleza. Pero está en inferioridad de condiciones y el tiempo se acaba.

Ficha técnica

Video trailer de la película

Enlaces de descarga

Rip de Bluray

Descargar Soy leyenda (2007) Theatrical Cut Full 1080p Latino




Aportes de DPeliculasHDmega la pass es:dpeliculashdmega.org Aportes de CinemaniaHD la pass es:cinemaniahdd.com

Películas relacionadas

  • El Reino de los Supermanes (2019) 1080p Latino

    2019
    El Reino de los Supermanes (2019) 1080p Latino

    5.0 1h 27m 2019

    Descargar El Reino de los Supermanes (2019) 1080p Latino, Mega, Google Drive, Torrent. Superman ha muerto...

    Director: Sam Liu

    Género: Acción

    Actores: Trevor Devall

  • Verónica (2017) HD 1080p Español

    2017
    Verónica (2017) HD 1080p Español

    0.0 1h 45m 2017

    Descargar Verónica (2017) HD 1080p Español, Mega, Google Drive, Torrent. Está inspirada en el único...

    Director: Paco Plaza

    Género: Castellano

    Actores: Sonia Almarcha

  • El Reino (2018) HD 1080p Español

    2018
    El Reino (2018) HD 1080p Español

    0.0 2h 15m 2018

    Descargar El Reino (2018) HD 1080p Español, Mega, Google Drive, Torrent. Manuel (Antonio de la Torre),...

    Director: Rodrigo Sorogoyen

    Género: Castellano

    Actores: Paco Revilla

  • Campeones (2018) HD 1080p Español

    2018
    Campeones (2018) HD 1080p Español

    0.0 2h 4m 2018

    Descargar Campeones (2018) HD 1080p Español, Mega, Google Drive, Torrent. Marco, un entrenador profesional...

    Director: Javier Fesser

    Género: Castellano

    Actores: Yiyo Alonso

Comentarios 3
  • William - 12 enero, 2018

    Muchas gracias, esta es la versión que trae las partes eliminadas y el final alternativo?

    • Dpelis2 - 12 enero, 2018

      No esta es la version que salio en los cines! Pronto se viene la que trae el final alternativo

  • Rxdrigx17 - 12 enero, 2018

    Muchas gracias!