×

¿Problemas para descargar con Mozilla, EDGE? Deshabilita la opción "Abrir vinculos en una pestaña nueva" tal como lo muestra ésta imagen.

Simbad y el ojo del tigre (1977) PLACEBO 1080p Latino

508 vistas

Información de Simbad y el ojo del tigre (1977) PLACEBO 1080p Latino

Datos de la película

  • Calidad:
  • Audio: Se especifica abajo de la Sinopsis
  • Subtitulos: Español Latino SRT- FORZADOS SRT
  • Resolución: 1920x1080
  • Formato: MKV
  • Codec: H.264
  • Encoder: cinemaniahdd
  • Mediainfo: Clic para Mostrar Datos Ver
  • Sinbad and the Eye of the Tiger (1977) PLACEBO 1080p Latino.mkv
    Format                      : Matroska
    Format version              : Version 4
    File size                   : 10.6 GiB
    Duration                    : 1 h 52 min
    Overall bit rate            : 13.4 Mb/s
    Movie name                  : Sinbad y el ojo del Tigre (1977) - CinemaniaHDD.Net
    Encoded date                : UTC 2020-04-15 21:58:27
    Writing application         : mkvmerge v42.0.0 ('Overtime') 64-bit
    Writing library             : libebml v1.3.10 + libmatroska v1.5.2

    Video
    ID                          : 1
    Format                      : AVC
    Format/Info                 : Advanced Video Codec
    Format profile              : High@L4.1
    Format settings             : CABAC / 4 Ref Frames
    Format settings, CABAC      : Yes
    Format settings, ReFrames   : 4 frames
    Codec ID                    : V_MPEG4/ISO/AVC
    Duration                    : 1 h 52 min
    Bit rate                    : 12.4 Mb/s
    Width                       : 1 918 pixels
    Height                      : 1 078 pixels
    Display aspect ratio        : 16:9
    Frame rate mode             : Constant
    Frame rate                  : 23.976 (24000/1001) FPS
    Color space                 : YUV
    Chroma subsampling          : 4:2:0
    Bit depth                   : 8 bits
    Scan type                   : Progressive
    Bits/(Pixel*Frame)          : 0.250
    Stream size                 : 9.77 GiB (92%)
    Title                       : CinemaniaHDD
    Writing library             : x264 core 157 r2935 545de2f
    Encoding settings           : cabac=1 / ref=4 / deblock=1:0:0 / analyse=0x3:0x133 / me=tesa / subme=11 / psy=1 / psy_rd=1.00:0.00 / mixed_ref=1 / me_range=24 / chroma_me=1 / trellis=2 / 8x8dct=1 / cqm=0 / deadzone=21,11 / fast_pskip=0 / chroma_qp_offset=-2 / threads=34 / lookahead_threads=8 / sliced_threads=0 / nr=0 / decimate=1 / interlaced=0 / bluray_compat=0 / constrained_intra=0 / bframes=16 / b_pyramid=2 / b_adapt=2 / b_bias=0 / direct=3 / weightb=1 / open_gop=0 / weightp=2 / keyint=240 / keyint_min=24 / scenecut=40 / intra_refresh=0 / rc_lookahead=60 / rc=crf / mbtree=1 / crf=20.0 / qcomp=0.60 / qpmin=0 / qpmax=69 / qpstep=4 / vbv_maxrate=62500 / vbv_bufsize=78125 / crf_max=0.0 / nal_hrd=none / filler=0 / ip_ratio=1.40 / aq=1:1.00
    Default                     : Yes
    Forced                      : No
    Color range                 : Limited
    Color primaries             : BT.709
    Transfer characteristics    : BT.709
    Matrix coefficients         : BT.709

    Audio #1
    ID                          : 2
    Format                      : AC-3
    Format/Info                 : Audio Coding 3
    Commercial name             : Dolby Digital
    Codec ID                    : A_AC3
    Duration                    : 1 h 52 min
    Bit rate mode               : Constant
    Bit rate                    : 256 kb/s
    Channel(s)                  : 2 channels
    Channel layout              : L R
    Sampling rate               : 48.0 kHz
    Frame rate                  : 31.250 FPS (1536 SPF)
    Bit depth                   : 16 bits
    Compression mode            : Lossy
    Delay relative to video     : -21 ms
    Stream size                 : 207 MiB (2%)
    Title                       : Español latino [CinemaniaHDD]
    Language                    : Spanish
    Service kind                : Complete Main
    Default                     : Yes
    Forced                      : No

    Audio #2
    ID                          : 3
    Format                      : DTS
    Format/Info                 : Digital Theater Systems
    Codec ID                    : A_DTS
    Duration                    : 1 h 52 min
    Bit rate mode               : Constant
    Bit rate                    : 768 kb/s
    Channel(s)                  : 2 channels
    Channel layout              : L R
    Sampling rate               : 48.0 kHz
    Frame rate                  : 93.750 FPS (512 SPF)
    Bit depth                   : 24 bits
    Compression mode            : Lossy
    Delay relative to video     : -21 ms
    Stream size                 : 621 MiB (6%)
    Title                       : Inglés [CinemaniaHDD]
    Language                    : English
    Default                     : No
    Forced                      : No

    Text #1
    ID                          : 4
    Format                      : UTF-8
    Codec ID                    : S_TEXT/UTF8
    Codec ID/Info               : UTF-8 Plain Text
    Duration                    : 20 s 0 ms
    Bit rate                    : 6 b/s
    Count of elements           : 1
    Stream size                 : 16.0 Bytes (0%)
    Title                       : Forzados [CinemaniaHDD]
    Language                    : Spanish
    Default                     : Yes
    Forced                      : Yes

    Text #2
    ID                          : 5
    Format                      : UTF-8
    Codec ID                    : S_TEXT/UTF8
    Codec ID/Info               : UTF-8 Plain Text
    Duration                    : 1 h 48 min
    Bit rate                    : 36 b/s
    Count of elements           : 990
    Stream size                 : 29.1 KiB (0%)
    Title                       : Español latino [CinemaniaHDD]
    Language                    : Spanish
    Default                     : No
    Forced                      : No

     

  • Peso: 10.6 GiB

Sinopsis

Cuando Simbad, intrépido marino y Príncipe de Bagdad, pone rumbo a Charnak para pedir al Príncipe Kassim la mano de su hermana Farah, descubre que Kassim es víctima de un hechizo de Zenobia, su diabólica madrastra. Para conjurar el maleficio, tendrá que emprender un peligroso viaje que nadie ha realizado nunca y que lo llevará a enfrentarse con monstruosas criaturas como el Minoton, un coloso de bronce, el troglodita gigante, el tigre con dientes de sable y un babuino casi humano.

Español Latino AC3 2.0 Bluray – Ingles DTS 2.0 Bluray

Ficha técnica

Video trailer de la película

Enlaces de descarga

Rip de Bluray

Descargar Simbad y el ojo del tigre (1977) PLACEBO 1080p Latino




Aportes de DPeliculasHDmega la pass es:dpeliculashdmega.org Aportes de CinemaniaHD la pass es:cinemaniahdd.com

Películas relacionadas

descargar Simbad y el ojo del tigre (1977) PLACEBO 1080p Latino 1080p gratis, Simbad y el ojo del tigre (1977) PLACEBO 1080p Latino mega 1 link, Simbad y el ojo del tigre (1977) PLACEBO 1080p Latino pelicula completa, descargar Simbad y el ojo del tigre (1977) PLACEBO 1080p Latino gratis en mega.

Simbad y el ojo del tigre (1977) PLACEBO 1080p Latino pelicula full hd, Simbad y el ojo del tigre (1977) PLACEBO 1080p Latino mega latino, Simbad y el ojo del tigre (1977) PLACEBO 1080p Latino 4k latino, Simbad y el ojo del tigre (1977) PLACEBO 1080p Latino pelicula completa, Simbad y el ojo del tigre (1977) PLACEBO 1080p Latino descargar gratis, descargar Simbad y el ojo del tigre (1977) PLACEBO 1080p Latino pelicula latino, Simbad y el ojo del tigre (1977) PLACEBO 1080p Latino 1 link mega, Simbad y el ojo del tigre (1977) PLACEBO 1080p Latino 1 link google drive, Simbad y el ojo del tigre (1977) PLACEBO 1080p Latino hd 1080p latino.
Comentarios 0