Shrek para siempre (2010) Full 1080p Latino

1.230 vistas
1 estrella2 estrellas3 estrellas4 estrellas5 estrellas (1 votos, promedio: 5,00 de 5)
Cargando…

Información de Shrek para siempre (2010) Full 1080p Latino

Datos de la película

  • Calidad: Full 1080p
  • Audio: Español Latino AC3 5.1 BLURAY - Ingles DTS 5.1 BLURAY
  • Subtitulos: Español Latino PGS - Ingles PGS
  • Resolución: 1920x1080p
  • Formato: MKV
  • Codec: H.264
  • Encoder: Dracarys
  • Mediainfo: Clic para Mostrar Datos Ver
  • Format                                   : Matroska
    Format version                           : Version 4 / Version 2
    File size                                : 3.94 GiB
    Duration                                 : 1 h 33 min
    Overall bit rate                         : 6 042 kb/s
    Movie name                               : CinemaniaHDD.com
    Encoded date                             : UTC 2018-03-22 20:34:03 / UTC 2018-03-22T15:15:37Z
    Writing application                      : mkvmerge v15.0.0 ('Duel with the Devil') 64-bit
    Writing library                          : libebml v1.3.5 + libmatroska v1.4.5 / Lavf57.7.2

    Video
    ID                                       : 1
    Format                                   : AVC
    Format/Info                              : Advanced Video Codec
    Format profile                           : High@L4.1
    Format settings                          : CABAC / 4 Ref Frames
    Format settings, CABAC                   : Yes
    Format settings, RefFrames               : 4 frames
    Codec ID                                 : V_MPEG4/ISO/AVC
    Duration                                 : 1 h 33 min
    Bit rate                                 : 3 773 kb/s
    Width                                    : 1 920 pixels
    Height                                   : 1 080 pixels
    Display aspect ratio                     : 16:9
    Frame rate mode                          : Constant
    Frame rate                               : 23.976 (24000/1001) FPS
    Color space                              : YUV
    Chroma subsampling                       : 4:2:0
    Bit depth                                : 8 bits
    Scan type                                : Progressive
    Bits/(Pixel*Frame)                       : 0.076
    Stream size                              : 2.46 GiB (62%)
    Title                                    : Shrek para siempre (2010) Full 1080p Latino
    Writing library                          : x264 core 148 r2708 86b7198
    Encoding settings                        : cabac=1 / ref=4 / deblock=1:0:0 / analyse=0x3:0x133 / me=esa / subme=9 / psy=1 / psy_rd=1.00:0.00 / mixed_ref=1 / me_range=16 / chroma_me=1 / trellis=2 / 8x8dct=1 / cqm=0 / deadzone=21,11 / fast_pskip=1 / chroma_qp_offset=-2 / threads=34 / lookahead_threads=2 / sliced_threads=0 / nr=0 / decimate=1 / interlaced=0 / bluray_compat=0 / constrained_intra=0 / bframes=3 / b_pyramid=2 / b_adapt=2 / b_bias=0 / direct=3 / weightb=1 / open_gop=0 / weightp=2 / keyint=240 / keyint_min=24 / scenecut=40 / intra_refresh=0 / rc_lookahead=60 / rc=crf / mbtree=1 / crf=20.0 / qcomp=0.60 / qpmin=0 / qpmax=69 / qpstep=4 / vbv_maxrate=62500 / vbv_bufsize=78125 / crf_max=0.0 / nal_hrd=none / filler=0 / ip_ratio=1.40 / aq=1:1.00
    Language                                 : English
    Default                                  : Yes
    Forced                                   : No
    Color range                              : Limited
    Color primaries                          : BT.709
    Transfer characteristics                 : BT.709
    Matrix coefficients                      : BT.709
    Statistics Tags Issue                    : mkvmerge v15.0.0 ('Duel with the Devil') 64-bit 2018-03-22 20:34:03 / mkvmerge v15.0.0 ('Duel with the Devil') 64-bit 2018-03-22 20:34:03 / UTC 2018-03-22T15:15:37Z
    FromStats_BitRate                        : 3859454
    FromStats_Duration                       : 01:33:10.460000000
    FromStats_FrameCount                     : 134037
    FromStats_StreamSize                     : 2697015956

    Audio #1
    ID                                       : 2
    Format                                   : AC-3
    Format/Info                              : Audio Coding 3
    Format settings, Endianness              : Big
    Codec ID                                 : A_AC3
    Duration                                 : 1 h 33 min
    Bit rate mode                            : Constant
    Bit rate                                 : 640 kb/s
    Channel(s)                               : 6 channels
    Channel positions                        : Front: L C R, Side: L R, LFE
    Sampling rate                            : 48.0 kHz
    Frame rate                               : 31.250 FPS (1536 SPF)
    Bit depth                                : 16 bits
    Compression mode                         : Lossy
    Delay relative to video                  : 1 s 0 ms
    Stream size                              : 427 MiB (11%)
    Language                                 : Spanish
    Service kind                             : Complete Main
    Default                                  : Yes
    Forced                                   : No
    Statistics Tags Issue                    : mkvmerge v15.0.0 ('Duel with the Devil') 64-bit 2018-03-22 20:34:03 / mkvmerge v15.0.0 ('Duel with the Devil') 64-bit 2018-03-22 20:34:03 / UTC 2018-03-22T15:15:37Z
    FromStats_BitRate                        : 640000
    FromStats_Duration                       : 01:33:13.408000000
    FromStats_FrameCount                     : 174794
    FromStats_StreamSize                     : 447472640

    Audio #2
    ID                                       : 3
    Format                                   : DTS
    Format/Info                              : Digital Theater Systems
    Mode                                     : 16
    Format settings, Endianness              : Big
    Codec ID                                 : A_DTS
    Duration                                 : 1 h 33 min
    Bit rate mode                            : Constant
    Bit rate                                 : 1 509 kb/s
    Channel(s)                               : 6 channels
    Channel positions                        : Front: L C R, Side: L R, LFE
    Sampling rate                            : 48.0 kHz
    Frame rate                               : 93.750 FPS (512 SPF)
    Bit depth                                : 24 bits
    Compression mode                         : Lossy
    Stream size                              : 1 006 MiB (25%)
    Language                                 : English
    Default                                  : No
    Forced                                   : No
    Statistics Tags Issue                    : mkvmerge v15.0.0 ('Duel with the Devil') 64-bit 2018-03-22 20:34:03 / mkvmerge v15.0.0 ('Duel with the Devil') 64-bit 2018-03-22 20:34:03 / UTC 2018-03-22T15:15:37Z
    FromStats_BitRate                        : 1508999
    FromStats_Duration                       : 01:33:10.475000000
    FromStats_FrameCount                     : 524107
    FromStats_StreamSize                     : 1054503284

    Text #1
    ID                                       : 4
    Format                                   : UTF-8
    Codec ID                                 : S_TEXT/UTF8
    Codec ID/Info                            : UTF-8 Plain Text
    Title                                    : SRT-Forzados
    Language                                 : Spanish
    Default                                  : Yes
    Forced                                   : Yes
    Statistics Tags Issue                    : mkvmerge v15.0.0 ('Duel with the Devil') 64-bit 2018-03-22 20:34:03 / mkvmerge v15.0.0 ('Duel with the Devil') 64-bit 2018-03-22 20:34:03 / UTC 2018-03-22T15:15:37Z
    FromStats_BitRate                        : 0
    FromStats_Duration                       : 00:29:21.961000000
    FromStats_FrameCount                     : 8
    FromStats_StreamSize                     : 164

    Text #2
    ID                                       : 5
    Format                                   : UTF-8
    Codec ID                                 : S_TEXT/UTF8
    Codec ID/Info                            : UTF-8 Plain Text
    Title                                    : SRT-Completos
    Language                                 : Spanish
    Default                                  : No
    Forced                                   : No
    Statistics Tags Issue                    : mkvmerge v15.0.0 ('Duel with the Devil') 64-bit 2018-03-22 20:34:03 / mkvmerge v15.0.0 ('Duel with the Devil') 64-bit 2018-03-22 20:34:03 / UTC 2018-03-22T15:15:37Z
    FromStats_BitRate                        : 57
    FromStats_Duration                       : 01:22:30.250000000
    FromStats_FrameCount                     : 1075
    FromStats_StreamSize                     : 35821

    Text #3
    ID                                       : 6
    Format                                   : PGS
    Muxing mode                              : zlib
    Codec ID                                 : S_HDMV/PGS
    Codec ID/Info                            : Picture based subtitle format used on BDs/HD-DVDs
    Title                                    : PGS-Forzados
    Language                                 : Spanish
    Default                                  : No
    Forced                                   : No
    Statistics Tags Issue                    : mkvmerge v15.0.0 ('Duel with the Devil') 64-bit 2018-03-22 20:34:03 / mkvmerge v15.0.0 ('Duel with the Devil') 64-bit 2018-03-22 20:34:03 / UTC 2018-03-22T15:15:37Z
    FromStats_BitRate                        : 954
    FromStats_Duration                       : 00:29:21.929000000
    FromStats_FrameCount                     : 16
    FromStats_StreamSize                     : 210205

    Text #4
    ID                                       : 7
    Format                                   : PGS
    Muxing mode                              : zlib
    Codec ID                                 : S_HDMV/PGS
    Codec ID/Info                            : Picture based subtitle format used on BDs/HD-DVDs
    Title                                    : PGS-Completos
    Language                                 : Spanish
    Default                                  : No
    Forced                                   : No
    Statistics Tags Issue                    : mkvmerge v15.0.0 ('Duel with the Devil') 64-bit 2018-03-22 20:34:03 / mkvmerge v15.0.0 ('Duel with the Devil') 64-bit 2018-03-22 20:34:03 / UTC 2018-03-22T15:15:37Z
    FromStats_BitRate                        : 52245
    FromStats_Duration                       : 01:22:30.242000000
    FromStats_FrameCount                     : 2150
    FromStats_StreamSize                     : 32328292

    Text #5
    ID                                       : 8
    Format                                   : PGS
    Muxing mode                              : zlib
    Codec ID                                 : S_HDMV/PGS
    Codec ID/Info                            : Picture based subtitle format used on BDs/HD-DVDs
    Title                                    : PGS-Completos
    Language                                 : English
    Default                                  : No
    Forced                                   : No
    Statistics Tags Issue                    : mkvmerge v15.0.0 ('Duel with the Devil') 64-bit 2018-03-22 20:34:03 / mkvmerge v15.0.0 ('Duel with the Devil') 64-bit 2018-03-22 20:34:03 / UTC 2018-03-22T15:15:37Z
    FromStats_BitRate                        : 44317
    FromStats_Duration                       : 01:32:23.622000000
    FromStats_FrameCount                     : 2067
    FromStats_StreamSize                     : 30709798

    Menu
    00:00:00.000                             : :Chapter 1
    00:04:47.704                             : :Chapter 2
    00:08:39.853                             : :Chapter 3
    00:14:51.641                             : :Chapter 4
    00:19:51.107                             : :Chapter 5
    00:24:43.232                             : :Chapter 6
    00:33:22.250                             : :Chapter 7
    00:41:11.386                             : :Chapter 8
    00:44:51.189                             : :Chapter 9
    00:48:32.368                             : :Chapter 10
    00:51:31.547                             : :Chapter 11
    00:53:02.304                             : :Chapter 12
    00:58:25.877                             : :Chapter 13
    01:03:13.665                             : :Chapter 14
    01:05:48.778                             : :Chapter 15
    01:12:34.392                             : :Chapter 16
    01:20:00.337                             : :Chapter 17
    01:23:13.739                             : :Chapter 18

  • Peso: 3.94 GiB

Sinopsis

En lugar de espantar a los aldeanos como él solía hacerlo, un recluido Shrek ahora accede a autografiar horquillas para siembra. Anhelando los días cuando se sentía un “ogro real”, Shrek es embaucado al firmar un pacto con el afable negociador Rumpelstiltskin. De pronto Shrek se encuentra en una retorcida versión alterna de Muy Muy Lejano, donde Fiona es un ogro de caza, Rumpelstiltskin es el rey, Burro nunca ha conocido a Shrek, el Gato con Botas es obeso y perezoso, y Shrek y Fiona no se conocían. Ahora, está en las manos de Shrek deshacer todo lo que hizo con la esperanza de salvar a sus amigos, restaurar su mundo y recuperar a su único y verdadero amor.

Ficha técnica

Video trailer de la película

Enlaces de descarga

Rip de Bluray

Descargar Shrek para siempre (2010) Full 1080p Latino




Aportes de DPeliculasHDmega la pass es:dpeliculashdmega.org Aportes de CinemaniaHD la pass es:cinemaniahdd.com

Películas relacionadas

  • Godzilla (2014) Full 1080p Latino

    2014
    Godzilla (2014) Full 1080p Latino

    4.2 2h 3m 2014

    Descargar Godzilla (2014) Full 1080p Latino, Mega, Google Drive, Torrent. Gareth Edwards dirige este...

    Director: Jessica Clothier

    Género: Acción

    Actores: Yuki Morita

  • Un pequeño favor (2018) Full 1080p Latino

    2018
    Un pequeño favor (2018) Full 1080p Latino

    5.0 1h 57m 2018

    Descargar Un pequeño favor (2018) Full 1080p Latino, Mega, Google Drive, Torrent. Stephanie es una joven...

    Director: Paul Feig

    Género: Crimen

    Actores: Zach Smadu

Comentarios 0