×

¿Problemas para descargar con Mozilla, EDGE? Deshabilita la opción "Abrir vinculos en una pestaña nueva" tal como lo muestra ésta imagen.

Scary Movie 2 (2001) REMUX 1080p Latino

348 vistas

Información de Scary Movie 2 (2001) REMUX 1080p Latino

Datos de la película

  • Calidad: Full 1080p
  • Audio: Español Latino AC3 2.0 DVD - Ingles DTS 5.1 BLURAY
  • Subtitulos: Español Latino SRT
  • Resolución: 1920x1080p
  • Formato: MKV
  • Codec: H.264
  • Encoder: Dracarys
  • Mediainfo: Clic para Mostrar Datos Ver
  • Format                      : Matroska
    Format version              : Version 4
    File size                   : 13.1 GiB
    Duration                    : 1 h 22 min
    Overall bit rate mode       : Variable
    Overall bit rate            : 22.7 Mb/s
    Movie name                  : CinemaniaHDD.net
    Encoded date                : UTC 2020-04-30 03:37:09
    Writing application         : mkvmerge v38.0.0 ('The Silent Type') 64-bit
    Writing library             : libebml v1.3.9 + libmatroska v1.5.2

    Video
    ID                          : 1
    Format                      : AVC
    Format/Info                 : Advanced Video Codec
    Format profile              : High@L4.1
    Format settings             : CABAC / 4 Ref Frames
    Format settings, CABAC      : Yes
    Format settings, ReFrames   : 4 frames
    Codec ID                    : V_MPEG4/ISO/AVC
    Duration                    : 1 h 22 min
    Bit rate mode               : Variable
    Bit rate                    : 20.0 Mb/s
    Maximum bit rate            : 34.0 Mb/s
    Width                       : 1 920 pixels
    Height                      : 1 080 pixels
    Display aspect ratio        : 16:9
    Frame rate mode             : Constant
    Frame rate                  : 23.976 (24000/1001) FPS
    Standard                    : NTSC
    Color space                 : YUV
    Chroma subsampling          : 4:2:0
    Bit depth                   : 8 bits
    Scan type                   : Progressive
    Bits/(Pixel*Frame)          : 0.402
    Stream size                 : 11.5 GiB (88%)
    Default                     : Yes
    Forced                      : No
    Color range                 : Limited
    Color primaries             : BT.709
    Transfer characteristics    : BT.709
    Matrix coefficients         : BT.709

    Audio #1
    ID                          : 2
    Format                      : AC-3
    Format/Info                 : Audio Coding 3
    Commercial name             : Dolby Digital
    Codec ID                    : A_AC3
    Duration                    : 1 h 22 min
    Bit rate mode               : Constant
    Bit rate                    : 192 kb/s
    Channel(s)                  : 2 channels
    Channel layout              : L R
    Sampling rate               : 48.0 kHz
    Frame rate                  : 31.250 FPS (1536 SPF)
    Bit depth                   : 16 bits
    Compression mode            : Lossy
    Delay relative to video     : 8 s 0 ms
    Stream size                 : 113 MiB (1%)
    Language                    : Spanish
    Service kind                : Complete Main
    Default                     : Yes
    Forced                      : No

    Audio #2
    ID                          : 3
    Format                      : DTS XLL
    Format/Info                 : Digital Theater Systems
    Commercial name             : DTS-HD Master Audio
    Codec ID                    : A_DTS
    Duration                    : 1 h 22 min
    Bit rate mode               : Variable
    Bit rate                    : 2 477 kb/s
    Channel(s)                  : 6 channels
    Channel layout              : C L R Ls Rs LFE
    Sampling rate               : 48.0 kHz
    Frame rate                  : 93.750 FPS (512 SPF)
    Bit depth                   : 24 bits
    Compression mode            : Lossless
    Delay relative to video     : 8 s 50 ms
    Stream size                 : 1.43 GiB (11%)
    Language                    : English
    Default                     : No
    Forced                      : No

    Text #1
    ID                          : 4
    Format                      : PGS
    Muxing mode                 : zlib
    Codec ID                    : S_HDMV/PGS
    Codec ID/Info               : Picture based subtitle format used on BDs/HD-DVDs
    Duration                    : 1 h 14 min
    Bit rate                    : 34.3 kb/s
    Count of elements           : 2154
    Stream size                 : 18.2 MiB (0%)
    Language                    : Spanish
    Default                     : No
    Forced                      : No

    Text #2
    ID                          : 5
    Format                      : UTF-8
    Codec ID                    : S_TEXT/UTF8
    Codec ID/Info               : UTF-8 Plain Text
    Duration                    : 1 h 14 min
    Bit rate                    : 53 b/s
    Count of elements           : 1077
    Stream size                 : 29.3 KiB (0%)
    Language                    : Spanish
    Default                     : Yes
    Forced                      : No

    Menu
    00:00:00.000                : en:00:00:00.000
    00:02:07.210                : en:00:02:07.210
    00:07:41.628                : en:00:07:41.628
    00:15:12.745                : en:00:15:12.745
    00:20:29.186                : en:00:20:29.186
    00:23:18.355                : en:00:23:18.355
    00:28:19.323                : en:00:28:19.323
    00:34:07.963                : en:00:34:07.963
    00:39:03.091                : en:00:39:03.091
    00:44:40.803                : en:00:44:40.803
    00:48:35.704                : en:00:48:35.704
    00:51:09.149                : en:00:51:09.149
    00:56:06.780                : en:00:56:06.780
    00:59:39.075                : en:00:59:39.075
    01:01:05.412                : en:01:01:05.412
    01:06:31.613                : en:01:06:31.613

  • Peso: 13.1 GiB

Sinopsis

En esta ocasión los hermanos Wayans empiezan la historia con una satírica parodia de El Exorcista, mostrando a James Woods en el papel de un cura poco convencional, el padre McFelly, ocupado en salvar a una Natasha Lyonne de un espíritu de otro mundo. Entonces, retomando la historia donde la dejaron, los hermanos Wayans se vuelven a reunir de forma cómica con la heroína Cindy Campbell, convertida ahora en una buena estudiante universitaria. Un profesor loco la recluta a ella y a su grupo de compañeros deseosos de vivir aventuras y nuevas experiencias, para una salida de fin de semana bajo el pretexto de realizar un experimento científico. Mientras se desarollan las actividades del fin de semana, las continuas sorpresas mantienen la diversión siempre en marcha.

Ficha técnica

Video trailer de la película

Enlaces de descarga

Rip de Bluray

Descargar Scary Movie 2 (2001) REMUX 1080p Latino




Aportes de DPeliculasHDmega la pass es:dpeliculashdmega.org Aportes de CinemaniaHD la pass es:cinemaniahdd.com
Guardado en : Comedia , Remux

Películas relacionadas

descargar Scary Movie 2 (2001) REMUX 1080p Latino Full 1080p 1080p gratis, Scary Movie 2 (2001) REMUX 1080p Latino Full 1080p mega 1 link, Scary Movie 2 (2001) REMUX 1080p Latino Full 1080p pelicula completa, descargar Scary Movie 2 (2001) REMUX 1080p Latino Full 1080p gratis en mega.

Scary Movie 2 (2001) REMUX 1080p Latino pelicula full hd, Scary Movie 2 (2001) REMUX 1080p Latino mega latino, Scary Movie 2 (2001) REMUX 1080p Latino 4k latino, Scary Movie 2 (2001) REMUX 1080p Latino pelicula completa, Scary Movie 2 (2001) REMUX 1080p Latino descargar gratis, descargar Scary Movie 2 (2001) REMUX 1080p Latino pelicula latino, Scary Movie 2 (2001) REMUX 1080p Latino 1 link mega, Scary Movie 2 (2001) REMUX 1080p Latino 1 link google drive, Scary Movie 2 (2001) REMUX 1080p Latino hd 1080p latino.
Comentarios 0