Robots (2005) Full 1080p Latino

2.018 vistas
1 estrella2 estrellas3 estrellas4 estrellas5 estrellas (Ninguna valoración todavía)
Cargando…

Información de Robots (2005) Full 1080p Latino

Datos de la película

  • Calidad: Full 1080p
  • Audio: Español Latino DTS 5.1 BLURAY - Ingles DTS 5.1 BLURAY
  • Subtitulos: Español Latino PGS - Ingles PGS
  • Resolución: 1920x1080p
  • Formato: MKV
  • Codec: H.264
  • Encoder: Dracarys
  • Mediainfo: Clic para Mostrar Datos Ver
  • Format                                   : Matroska
    Format version                           : Version 4 / Version 2
    File size                                : 4.14 GiB
    Duration                                 : 1 h 29 min
    Overall bit rate                         : 6 601 kb/s
    Movie name                               : CinemaniaHDD.com
    Encoded date                             : UTC 2018-03-31 04:09:45 / UTC 2018-03-31T00:22:51Z
    Writing application                      : mkvmerge v15.0.0 ('Duel with the Devil') 64-bit
    Writing library                          : libebml v1.3.5 + libmatroska v1.4.5 / Lavf57.7.2

    Video
    ID                                       : 1
    Format                                   : AVC
    Format/Info                              : Advanced Video Codec
    Format profile                           : [email protected]
    Format settings                          : CABAC / 4 Ref Frames
    Format settings, CABAC                   : Yes
    Format settings, RefFrames               : 4 frames
    Codec ID                                 : V_MPEG4/ISO/AVC
    Duration                                 : 1 h 29 min
    Bit rate                                 : 4 933 kb/s
    Width                                    : 1 920 pixels
    Height                                   : 1 080 pixels
    Display aspect ratio                     : 16:9
    Frame rate mode                          : Constant
    Frame rate                               : 23.976 (24000/1001) FPS
    Color space                              : YUV
    Chroma subsampling                       : 4:2:0
    Bit depth                                : 8 bits
    Scan type                                : Progressive
    Bits/(Pixel*Frame)                       : 0.099
    Stream size                              : 3.09 GiB (75%)
    Title                                    : Robots (2005) Full 1080p Latino
    Writing library                          : x264 core 148 r2708 86b7198
    Encoding settings                        : cabac=1 / ref=4 / deblock=1:0:0 / analyse=0x3:0x133 / me=esa / subme=9 / psy=1 / psy_rd=1.00:0.00 / mixed_ref=1 / me_range=16 / chroma_me=1 / trellis=2 / 8x8dct=1 / cqm=0 / deadzone=21,11 / fast_pskip=1 / chroma_qp_offset=-2 / threads=34 / lookahead_threads=2 / sliced_threads=0 / nr=0 / decimate=1 / interlaced=0 / bluray_compat=0 / constrained_intra=0 / bframes=3 / b_pyramid=2 / b_adapt=2 / b_bias=0 / direct=3 / weightb=1 / open_gop=0 / weightp=2 / keyint=240 / keyint_min=24 / scenecut=40 / intra_refresh=0 / rc_lookahead=60 / rc=crf / mbtree=1 / crf=20.0 / qcomp=0.60 / qpmin=0 / qpmax=69 / qpstep=4 / vbv_maxrate=62500 / vbv_bufsize=78125 / crf_max=0.0 / nal_hrd=none / filler=0 / ip_ratio=1.40 / aq=1:1.00
    Language                                 : English
    Default                                  : Yes
    Forced                                   : No
    Color range                              : Limited
    Color primaries                          : BT.709
    Transfer characteristics                 : BT.709
    Matrix coefficients                      : BT.709
    Statistics Tags Issue                    : mkvmerge v15.0.0 ('Duel with the Devil') 64-bit 2018-03-31 04:09:45 / mkvmerge v15.0.0 ('Duel with the Devil') 64-bit 2018-03-31 04:09:45 / UTC 2018-03-31T00:22:51Z
    FromStats_BitRate                        : 5042062
    FromStats_Duration                       : 01:29:47.674000000
    FromStats_FrameCount                     : 129175
    FromStats_StreamSize                     : 3395623783

    Audio #1
    ID                                       : 2
    Format                                   : DTS
    Format/Info                              : Digital Theater Systems
    Mode                                     : 16
    Format settings, Endianness              : Big
    Codec ID                                 : A_DTS
    Duration                                 : 1 h 29 min
    Bit rate mode                            : Constant
    Bit rate                                 : 768 kb/s
    Channel(s)                               : 6 channels
    Channel positions                        : Front: L C R, Side: L R, LFE
    Sampling rate                            : 48.0 kHz
    Frame rate                               : 93.750 FPS (512 SPF)
    Bit depth                                : 24 bits
    Compression mode                         : Lossy
    Delay relative to video                  : 11 ms
    Stream size                              : 493 MiB (12%)
    Language                                 : Spanish
    Default                                  : Yes
    Forced                                   : No
    Statistics Tags Issue                    : mkvmerge v15.0.0 ('Duel with the Devil') 64-bit 2018-03-31 04:09:45 / mkvmerge v15.0.0 ('Duel with the Devil') 64-bit 2018-03-31 04:09:45 / UTC 2018-03-31T00:22:51Z
    FromStats_BitRate                        : 768000
    FromStats_Duration                       : 01:29:47.680000000
    FromStats_FrameCount                     : 505095
    FromStats_StreamSize                     : 517217280

    Audio #2
    ID                                       : 3
    Format                                   : DTS
    Format/Info                              : Digital Theater Systems
    Mode                                     : 16
    Format settings, Endianness              : Big
    Codec ID                                 : A_DTS
    Duration                                 : 1 h 29 min
    Bit rate mode                            : Constant
    Bit rate                                 : 768 kb/s
    Channel(s)                               : 6 channels
    Channel positions                        : Front: L C R, Side: L R, LFE
    Sampling rate                            : 48.0 kHz
    Frame rate                               : 93.750 FPS (512 SPF)
    Bit depth                                : 24 bits
    Compression mode                         : Lossy
    Delay relative to video                  : 11 ms
    Stream size                              : 493 MiB (12%)
    Language                                 : English
    Default                                  : No
    Forced                                   : No
    Statistics Tags Issue                    : mkvmerge v15.0.0 ('Duel with the Devil') 64-bit 2018-03-31 04:09:45 / mkvmerge v15.0.0 ('Duel with the Devil') 64-bit 2018-03-31 04:09:45 / UTC 2018-03-31T00:22:51Z
    FromStats_BitRate                        : 768000
    FromStats_Duration                       : 01:29:47.680000000
    FromStats_FrameCount                     : 505095
    FromStats_StreamSize                     : 517217280

    Text #1
    ID                                       : 4
    Format                                   : PGS
    Muxing mode                              : zlib
    Codec ID                                 : S_HDMV/PGS
    Codec ID/Info                            : Picture based subtitle format used on BDs/HD-DVDs
    Language                                 : English
    Default                                  : No
    Forced                                   : No
    Statistics Tags Issue                    : mkvmerge v15.0.0 ('Duel with the Devil') 64-bit 2018-03-31 04:09:45 / mkvmerge v15.0.0 ('Duel with the Devil') 64-bit 2018-03-31 04:09:45 / UTC 2018-03-31T00:22:51Z
    FromStats_BitRate                        : 36669
    FromStats_Duration                       : 01:22:51.859000000
    FromStats_FrameCount                     : 2068
    FromStats_StreamSize                     : 22789442

    Text #2
    ID                                       : 5
    Format                                   : PGS
    Muxing mode                              : zlib
    Codec ID                                 : S_HDMV/PGS
    Codec ID/Info                            : Picture based subtitle format used on BDs/HD-DVDs
    Language                                 : Spanish
    Default                                  : No
    Forced                                   : No
    Statistics Tags Issue                    : mkvmerge v15.0.0 ('Duel with the Devil') 64-bit 2018-03-31 04:09:45 / mkvmerge v15.0.0 ('Duel with the Devil') 64-bit 2018-03-31 04:09:45 / UTC 2018-03-31T00:22:51Z
    FromStats_BitRate                        : 33153
    FromStats_Duration                       : 01:29:10.529000000
    FromStats_FrameCount                     : 2097
    FromStats_StreamSize                     : 22173863

    Menu
    00:00:00.000                             : :Chapter 1
    00:02:03.540                             : :Chapter 2
    00:04:24.139                             : :Chapter 3
    00:07:17.312                             : :Chapter 4
    00:10:50.984                             : :Chapter 5
    00:13:34.397                             : :Chapter 6
    00:15:52.827                             : :Chapter 7
    00:19:04.894                             : :Chapter 8
    00:22:42.611                             : :Chapter 9
    00:24:44.191                             : :Chapter 10
    00:26:44.394                             : :Chapter 11
    00:29:24.513                             : :Chapter 12
    00:33:03.773                             : :Chapter 13
    00:34:58.346                             : :Chapter 14
    00:36:36.444                             : :Chapter 15
    00:41:03.336                             : :Chapter 16
    00:45:55.044                             : :Chapter 17
    00:49:53.199                             : :Chapter 18
    00:53:42.344                             : :Chapter 19
    00:59:09.004                             : :Chapter 20
    01:01:02.993                             : :Chapter 21
    01:04:39.876                             : :Chapter 22
    01:06:54.761                             : :Chapter 23
    01:12:24.632                             : :Chapter 24
    01:16:12.902                             : :Chapter 25
    01:19:00.236                             : :Chapter 26
    01:21:24.213                             : :Chapter 27
    01:23:39.598                             : :Chapter 28

  • Peso: 4.14 GiB

Sinopsis

Rodney Hojalata es un joven y genial inventor que sueña con hacer del mundo un lugar mejor. Cappy es una atractiva ejecutiva robot de la que Rodney se queda prendado al instante. Ratchet es el tirano corporativo; y luego está el Gran Soldador, un magistral inventor que ha perdido el norte … hasta que tropieza con el irreprimible soñador de Rodney. Además está un grupo de robots inadaptados conocidos como los Oxidados liderados por Manivela.

Ficha técnica

Video trailer de la película

Enlaces de descarga

Rip de Bluray

Descargar Robots (2005) Full 1080p Latino




Aportes de DPeliculasHDmega la pass es:dpeliculashdmega.org Aportes de CinemaniaHD la pass es:cinemaniahdd.com

Películas relacionadas

  • Swing (2018) WEB-DL 1080p Latino

    2018
    Swing (2018) WEB-DL 1080p Latino

    0.0 1h 44m 2018

    En una noche en la que predomina el alcohol, cuatro amigos deciden intercambiar a sus parejas. Esta decisión...

    Director: Luis Smok

    Género: Comedia

    Actores: Tiago Correa

  • Aquaman (2018) Full HD 1080p Latino

    2018
    Aquaman (2018) Full HD 1080p Latino

    5.0 2h 24m 2018

    Un icono durante más de 70 años, Aquaman (Jason Momoa) es el Rey de los Siete Mares. Este reacio gobernante...

    Director: James Wan

    Género: Acción

    Actores: Yahya Abdul-Mateen II

  • Bumblebee (2018) WEB-DL 1080p Castellano

    2018
    Bumblebee (2018) WEB-DL 1080p Castellano

    3.0 1h 54m 2018

    Sexta entrega de la saga 'Transformers', esta vez centrada en el "hermano pequeño" de los Autobots,...

    Director: Travis Knight

    Género: Acción

    Actores: Yianni Apostolopolous

  • Operacion Overlord (2018) 4K UHD HDR Latino

    2018
    Operacion Overlord (2018) 4K UHD HDR Latino

    5.0 1h 50m 2018

    Descargar Operacion Overlord (2018) 4K UHD HDR Latino, Mega, Google Drive. La víspera del Día D, un...

    Director: Roxanne Cuenca

    Género: 4K HDR

    Actores: Wyatt Russell

Comentarios 0