Ragnarok (2020) Temporada 1 NF WEB-DL 1080p Latino

1.378 vistas
1 estrella2 estrellas3 estrellas4 estrellas5 estrellas (2 votos, promedio: 5,00 de 5)
Cargando...

Información de Ragnarok (2020) Temporada 1 NF WEB-DL 1080p Latino

Datos de la película

  • Calidad: WEBDL
  • Audio: Español Latino AC3 5.1 Netflix - Ingles AC3 5.1 Netflix
  • Subtitulos: Español Latino SRT- FORZADOS SRT
  • Resolución: 1920x1080
  • Formato: MKV
  • Codec: H.264
  • Encoder: cinemaniahdd
  • Mediainfo: Clic para Mostrar Datos Ver
  • Ragnarok T01E01 NF WEB-DL 1080p Latino.mkv
    Format                      : Matroska
    Format version              : Version 4
    File size                   : 2.54 GiB
    Duration                    : 45 min 48 s
    Overall bit rate mode       : Variable
    Overall bit rate            : 7 939 kb/s
    Movie name                  : Ragnarok T01E01 - CinemaniaHDD.Net
    Encoded date                : UTC 2020-01-31 23:41:42
    Writing application         : mkvmerge v42.0.0 ('Overtime') 64-bit
    Writing library             : libebml v1.3.10 + libmatroska v1.5.2

    Video
    ID                          : 1
    Format                      : AVC
    Format/Info                 : Advanced Video Codec
    Format profile              : High@L4
    Format settings             : CABAC / 4 Ref Frames
    Format settings, CABAC      : Yes
    Format settings, ReFrames   : 4 frames
    Codec ID                    : V_MPEG4/ISO/AVC
    Duration                    : 45 min 46 s
    Bit rate mode               : Variable
    Bit rate                    : 7 173 kb/s
    Maximum bit rate            : 20.0 Mb/s
    Width                       : 1 920 pixels
    Height                      : 1 080 pixels
    Display aspect ratio        : 16:9
    Frame rate mode             : Constant
    Frame rate                  : 24.000 FPS
    Color space                 : YUV
    Chroma subsampling          : 4:2:0
    Bit depth                   : 8 bits
    Scan type                   : Progressive
    Bits/(Pixel*Frame)          : 0.144
    Stream size                 : 2.29 GiB (90%)
    Title                       : CinemaniaHDD
    Default                     : Yes
    Forced                      : No

    Audio #1
    ID                          : 2
    Format                      : AC-3
    Format/Info                 : Audio Coding 3
    Commercial name             : Dolby Digital
    Codec ID                    : A_AC3
    Duration                    : 45 min 48 s
    Bit rate mode               : Constant
    Bit rate                    : 384 kb/s
    Channel(s)                  : 6 channels
    Channel layout              : L R C LFE Ls Rs
    Sampling rate               : 48.0 kHz
    Frame rate                  : 31.250 FPS (1536 SPF)
    Bit depth                   : 16 bits
    Compression mode            : Lossy
    Stream size                 : 126 MiB (5%)
    Title                       : Español latino [CinemaniaHDD]
    Language                    : Spanish
    Service kind                : Complete Main
    Default                     : Yes
    Forced                      : No

    Audio #2
    ID                          : 3
    Format                      : AC-3
    Format/Info                 : Audio Coding 3
    Commercial name             : Dolby Digital
    Codec ID                    : A_AC3
    Duration                    : 45 min 48 s
    Bit rate mode               : Constant
    Bit rate                    : 384 kb/s
    Channel(s)                  : 6 channels
    Channel layout              : L R C LFE Ls Rs
    Sampling rate               : 48.0 kHz
    Frame rate                  : 31.250 FPS (1536 SPF)
    Bit depth                   : 16 bits
    Compression mode            : Lossy
    Stream size                 : 126 MiB (5%)
    Title                       : Inglés [CinemaniaHDD]
    Language                    : English
    Service kind                : Complete Main
    Default                     : No
    Forced                      : No

    Text #1
    ID                          : 4
    Format                      : UTF-8
    Codec ID                    : S_TEXT/UTF8
    Codec ID/Info               : UTF-8 Plain Text
    Duration                    : 45 min 9 s
    Bit rate                    : 3 b/s
    Count of elements           : 32
    Stream size                 : 1.21 KiB (0%)
    Title                       : Forzados [CinemaniaHDD]
    Language                    : Spanish
    Default                     : Yes
    Forced                      : Yes

    Text #2
    ID                          : 5
    Format                      : UTF-8
    Codec ID                    : S_TEXT/UTF8
    Codec ID/Info               : UTF-8 Plain Text
    Duration                    : 45 min 9 s
    Bit rate                    : 43 b/s
    Count of elements           : 448
    Stream size                 : 14.5 KiB (0%)
    Title                       : Español latino [CinemaniaHDD]
    Language                    : Spanish
    Default                     : No
    Forced                      : No

     

  • Peso: 2.54 GiB C/U

Sinopsis

En una ciudad noruega envenenada por la contaminación y sacudida por el derretimiento de los glaciares, el Fin de los Tiempos se siente demasiado real. Se necesitará una leyenda para luchar contra un viejo mal

Ficha técnica

Video trailer de la película

Enlaces de descarga

Rip de Bluray

Descargar Ragnarok (2020) Temporada 1 NF WEB-DL 1080p Latino




Aportes de DPeliculasHDmega la pass es:dpeliculashdmega.org Aportes de CinemaniaHD la pass es:cinemaniahdd.com
Guardado en : Action & Adventure , Drama , Netflix , Series

Películas relacionadas

Ragnarok (2020) Temporada 1 NF WEB-DL 1080p Latino pelicula full hd, Ragnarok (2020) Temporada 1 NF WEB-DL 1080p Latino mega latino, Ragnarok (2020) Temporada 1 NF WEB-DL 1080p Latino 4k latino, Ragnarok (2020) Temporada 1 NF WEB-DL 1080p Latino pelicula completa, Ragnarok (2020) Temporada 1 NF WEB-DL 1080p Latino descargar gratis, descargar Ragnarok (2020) Temporada 1 NF WEB-DL 1080p Latino pelicula latino, Ragnarok (2020) Temporada 1 NF WEB-DL 1080p Latino 1 link mega, Ragnarok (2020) Temporada 1 NF WEB-DL 1080p Latino 1 link google drive, Ragnarok (2020) Temporada 1 NF WEB-DL 1080p Latino hd 1080p latino.
Comentarios 0