Mr. Robot (2016) Segunda Temporada Full 1080p Latino

1.123 vistas
1 estrella2 estrellas3 estrellas4 estrellas5 estrellas (3 votos, promedio: 3,33 de 5)
Cargando…

Información de Mr. Robot (2016) Segunda Temporada Full 1080p Latino

Datos de la película

  • Calidad: Full 1080p
  • Audio: Español Latino AC3 5.1 DVD - Ingles DTS 5.1 BLURAY
  • Subtitulos: Español Latino SRT
  • Resolución: 1920x1080p
  • Formato: MKV
  • Codec: H.264
  • Encoder: Dracarys
  • Mediainfo: Clic para Mostrar Datos Ver
  • Format                                   : Matroska
    Format version                           : Version 4 / Version 2
    File size                                : 2.24 GiB
    Duration                                 : 1 h 5 min
    Overall bit rate                         : 4 895 kb/s
    Movie name                               : CinemaniaHDD.net
    Encoded date                             : UTC 2018-09-17 23:32:45 / UTC 2018-09-17T09:52:28Z
    Writing application                      : mkvmerge v15.0.0 ('Duel with the Devil') 64-bit
    Writing library                          : libebml v1.3.5 + libmatroska v1.4.5 / Lavf57.7.2

    Video
    ID                                       : 1
    Format                                   : AVC
    Format/Info                              : Advanced Video Codec
    Format profile                           : High@L4.1
    Format settings                          : CABAC / 4 Ref Frames
    Format settings, CABAC                   : Yes
    Format settings, RefFrames               : 4 frames
    Codec ID                                 : V_MPEG4/ISO/AVC
    Duration                                 : 1 h 5 min
    Bit rate                                 : 2 968 kb/s
    Width                                    : 1 920 pixels
    Height                                   : 1 080 pixels
    Display aspect ratio                     : 16:9
    Frame rate mode                          : Constant
    Frame rate                               : 23.976 (24000/1001) FPS
    Color space                              : YUV
    Chroma subsampling                       : 4:2:0
    Bit depth                                : 8 bits
    Scan type                                : Progressive
    Bits/(Pixel*Frame)                       : 0.060
    Stream size                              : 1.36 GiB (61%)
    Writing library                          : x264 core 148 r2708 86b7198
    Encoding settings                        : cabac=1 / ref=4 / deblock=1:0:0 / analyse=0x3:0x133 / me=esa / subme=10 / psy=1 / psy_rd=1.00:0.00 / mixed_ref=1 / me_range=24 / chroma_me=1 / trellis=2 / 8x8dct=1 / cqm=0 / deadzone=21,11 / fast_pskip=1 / chroma_qp_offset=-2 / threads=34 / lookahead_threads=5 / sliced_threads=0 / nr=0 / decimate=1 / interlaced=0 / bluray_compat=0 / constrained_intra=0 / bframes=8 / b_pyramid=2 / b_adapt=2 / b_bias=0 / direct=3 / weightb=1 / open_gop=0 / weightp=2 / keyint=240 / keyint_min=24 / scenecut=40 / intra_refresh=0 / rc_lookahead=60 / rc=crf / mbtree=1 / crf=20.0 / qcomp=0.60 / qpmin=0 / qpmax=69 / qpstep=4 / vbv_maxrate=62500 / vbv_bufsize=78125 / crf_max=0.0 / nal_hrd=none / filler=0 / ip_ratio=1.40 / aq=1:1.00
    Language                                 : English
    Default                                  : Yes
    Forced                                   : No
    Color range                              : Limited
    Color primaries                          : BT.709
    Transfer characteristics                 : BT.709
    Matrix coefficients                      : BT.709
    Statistics Tags Issue                    : mkvmerge v15.0.0 ('Duel with the Devil') 64-bit 2018-09-17 23:32:45 / mkvmerge v15.0.0 ('Duel with the Devil') 64-bit 2018-09-17 23:32:45 / UTC 2018-09-17T09:52:28Z
    FromStats_BitRate                        : 3063832
    FromStats_Duration                       : 01:05:21.918000000
    FromStats_FrameCount                     : 94032
    FromStats_StreamSize                     : 1502012340

    Audio #1
    ID                                       : 2
    Format                                   : AC-3
    Format/Info                              : Audio Coding 3
    Format settings, Endianness              : Big
    Codec ID                                 : A_AC3
    Duration                                 : 1 h 5 min
    Bit rate mode                            : Constant
    Bit rate                                 : 320 kb/s
    Channel(s)                               : 6 channels
    Channel positions                        : Front: L C R, Side: L R, LFE
    Sampling rate                            : 48.0 kHz
    Frame rate                               : 31.250 FPS (1536 SPF)
    Bit depth                                : 16 bits
    Compression mode                         : Lossy
    Stream size                              : 150 MiB (7%)
    Language                                 : Spanish
    Service kind                             : Complete Main
    Default                                  : Yes
    Forced                                   : No
    Statistics Tags Issue                    : mkvmerge v15.0.0 ('Duel with the Devil') 64-bit 2018-09-17 23:32:45 / mkvmerge v15.0.0 ('Duel with the Devil') 64-bit 2018-09-17 23:32:45 / UTC 2018-09-17T09:52:28Z
    FromStats_BitRate                        : 320000
    FromStats_Duration                       : 01:05:22.560000000
    FromStats_FrameCount                     : 122580
    FromStats_StreamSize                     : 156902400

    Audio #2
    ID                                       : 3
    Format                                   : DTS
    Format/Info                              : Digital Theater Systems
    Mode                                     : 16
    Format settings, Endianness              : Big
    Codec ID                                 : A_DTS
    Duration                                 : 1 h 5 min
    Bit rate mode                            : Constant
    Bit rate                                 : 1 509 kb/s
    Channel(s)                               : 6 channels
    Channel positions                        : Front: L C R, Side: L R, LFE
    Sampling rate                            : 48.0 kHz
    Frame rate                               : 93.750 FPS (512 SPF)
    Bit depth                                : 24 bits
    Compression mode                         : Lossy
    Stream size                              : 706 MiB (31%)
    Language                                 : English
    Default                                  : No
    Forced                                   : No
    Statistics Tags Issue                    : mkvmerge v15.0.0 ('Duel with the Devil') 64-bit 2018-09-17 23:32:45 / mkvmerge v15.0.0 ('Duel with the Devil') 64-bit 2018-09-17 23:32:45 / UTC 2018-09-17T09:52:28Z
    FromStats_BitRate                        : 1508999
    FromStats_Duration                       : 01:05:21.910000000
    FromStats_FrameCount                     : 367679
    FromStats_StreamSize                     : 739770148

    Text
    ID                                       : 4
    Format                                   : UTF-8
    Codec ID                                 : S_TEXT/UTF8
    Codec ID/Info                            : UTF-8 Plain Text
    Language                                 : Spanish
    Default                                  : No
    Forced                                   : No
    Statistics Tags Issue                    : mkvmerge v15.0.0 ('Duel with the Devil') 64-bit 2018-09-17 23:32:45 / mkvmerge v15.0.0 ('Duel with the Devil') 64-bit 2018-09-17 23:32:45 / UTC 2018-09-17T09:52:28Z
    FromStats_BitRate                        : 57
    FromStats_Duration                       : 01:04:43.386000000
    FromStats_FrameCount                     : 933
    FromStats_StreamSize                     : 28134

    Menu
    00:00:00.000                             : :Chapter 1
    00:11:52.795                             : :Chapter 2
    00:34:05.835                             : :Chapter 3
    00:50:09.798                             : :Chapter 4

  • Peso: 2.00 GiB X Capitulo

Sinopsis

A pesar del duro golpe cometido contra Evil Corp; la empresa no está acabada. Con una sed de venganza imparable, la empresa dirigida por Phillip Price se lanza a por los hackers que han trastocado su, hasta ahora, inmaculada imagen.

Elliot, por su parte, sigue trabajando con la sociedad “f” y al resto de hackers para cumplir el propósito para el que había sido reclutado. A nivel personal, decide tratar su trastorno mental acudiendo a un psicólogo

Ficha técnica

Video trailer de la película

Enlaces de descarga

Rip de Bluray

Descargar Mr. Robot (2016) Segunda Temporada Full 1080p Latino




Aportes de DPeliculasHDmega la pass es:dpeliculashdmega.org Aportes de CinemaniaHD la pass es:cinemaniahdd.com

Películas relacionadas

  • El Justiciero 2 (2018) Full 1080p Latino

    2018
    El Justiciero 2 (2018) Full 1080p Latino

    0.0 2h 0m 2018

    Descargar El Justiciero 2 (2018) Full 1080p Latino, Mega, Google Drive. Robert McCall (Denzel Washington)...

    Director: Donald Sparks

    Género: Acción

    Actores: Wesley Pereira

  • Titanes (2018) Temporada 01 Web-DL 1080p Subtitulado

    2018
    Titanes (2018) Temporada 01 Web-DL 1080p Subtitulado

    3.3 0h 43m 2018

    Descargar Titanes (2018) Temporada 01 Web-DL 1080p Subtitulado; Mega, Google Drive. Un equipo de jóvenes...

    Director: Greg Berlanti

    Género: Action & Adventure

    Actores: Teagan Croft

Comentarios 1
  • Matías - 19 septiembre, 2018

    Nuevamente se agradece el aporte. ¡Sólo falta la tercera temporada! Y esperar a 2019 para la temporada final.