Mr. Robot (2015) Primera Temporada Full 1080p Latino

1.411 vistas
1 estrella2 estrellas3 estrellas4 estrellas5 estrellas (7 votos, promedio: 4,43 de 5)
Cargando…

Información de Mr. Robot (2015) Primera Temporada Full 1080p Latino

Datos de la película

  • Calidad: Full 1080p
  • Audio: Se especifica abajo de la Sinopsis
  • Subtitulos: Español Latino SRT- FORZADOS SRT
  • Resolución: 1920x1080p
  • Formato: MKV
  • Codec: H.264
  • Encoder: Dracarys
  • Mediainfo: Clic para Mostrar Datos Ver
  • Format                                   : Matroska
    Format version                           : Version 4 / Version 2
    File size                                : 1.72 GiB
    Duration                                 : 45 min 2 s
    Overall bit rate                         : 5 464 kb/s
    Movie name                               : CinemaniaHDD.net
    Encoded date                             : UTC 2018-09-05 02:27:04 / UTC 2018-09-04T08:22:25Z
    Writing application                      : mkvmerge v15.0.0 ('Duel with the Devil') 64-bit
    Writing library                          : libebml v1.3.5 + libmatroska v1.4.5 / Lavf57.7.2

    Video
    ID                                       : 1
    Format                                   : AVC
    Format/Info                              : Advanced Video Codec
    Format profile                           : High@L4.1
    Format settings                          : CABAC / 4 Ref Frames
    Format settings, CABAC                   : Yes
    Format settings, RefFrames               : 4 frames
    Codec ID                                 : V_MPEG4/ISO/AVC
    Duration                                 : 45 min 2 s
    Bit rate                                 : 3 206 kb/s
    Width                                    : 1 920 pixels
    Height                                   : 1 080 pixels
    Display aspect ratio                     : 16:9
    Frame rate mode                          : Constant
    Frame rate                               : 23.976 (24000/1001) FPS
    Color space                              : YUV
    Chroma subsampling                       : 4:2:0
    Bit depth                                : 8 bits
    Scan type                                : Progressive
    Bits/(Pixel*Frame)                       : 0.064
    Stream size                              : 1.01 GiB (59%)
    Writing library                          : x264 core 148 r2708 86b7198
    Encoding settings                        : cabac=1 / ref=4 / deblock=1:0:0 / analyse=0x3:0x133 / me=esa / subme=10 / psy=1 / psy_rd=1.00:0.00 / mixed_ref=1 / me_range=24 / chroma_me=1 / trellis=2 / 8x8dct=1 / cqm=0 / deadzone=21,11 / fast_pskip=1 / chroma_qp_offset=-2 / threads=34 / lookahead_threads=5 / sliced_threads=0 / nr=0 / decimate=1 / interlaced=0 / bluray_compat=0 / constrained_intra=0 / bframes=8 / b_pyramid=2 / b_adapt=2 / b_bias=0 / direct=3 / weightb=1 / open_gop=0 / weightp=2 / keyint=240 / keyint_min=24 / scenecut=40 / intra_refresh=0 / rc_lookahead=60 / rc=crf / mbtree=1 / crf=20.0 / qcomp=0.60 / qpmin=0 / qpmax=69 / qpstep=4 / vbv_maxrate=62500 / vbv_bufsize=78125 / crf_max=0.0 / nal_hrd=none / filler=0 / ip_ratio=1.40 / aq=1:1.00
    Language                                 : English
    Default                                  : Yes
    Forced                                   : No
    Color range                              : Limited
    Color primaries                          : BT.709
    Transfer characteristics                 : BT.709
    Matrix coefficients                      : BT.709
    Statistics Tags Issue                    : mkvmerge v15.0.0 ('Duel with the Devil') 64-bit 2018-09-05 02:27:04 / mkvmerge v15.0.0 ('Duel with the Devil') 64-bit 2018-09-05 02:27:04 / UTC 2018-09-04T08:22:25Z
    FromStats_BitRate                        : 3312449
    FromStats_Duration                       : 00:45:02.700000000
    FromStats_FrameCount                     : 64800
    FromStats_StreamSize                     : 1119069591

    Audio #1
    ID                                       : 2
    Format                                   : AC-3
    Format/Info                              : Audio Coding 3
    Format settings, Endianness              : Big
    Codec ID                                 : A_AC3
    Duration                                 : 45 min 2 s
    Bit rate mode                            : Constant
    Bit rate                                 : 640 kb/s
    Channel(s)                               : 6 channels
    Channel positions                        : Front: L C R, Side: L R, LFE
    Sampling rate                            : 48.0 kHz
    Frame rate                               : 31.250 FPS (1536 SPF)
    Bit depth                                : 16 bits
    Compression mode                         : Lossy
    Stream size                              : 206 MiB (12%)
    Language                                 : Spanish
    Service kind                             : Complete Main
    Default                                  : Yes
    Forced                                   : No
    Statistics Tags Issue                    : mkvmerge v15.0.0 ('Duel with the Devil') 64-bit 2018-09-05 02:27:04 / mkvmerge v15.0.0 ('Duel with the Devil') 64-bit 2018-09-05 02:27:04 / UTC 2018-09-04T08:22:25Z
    FromStats_BitRate                        : 640000
    FromStats_Duration                       : 00:45:01.792000000
    FromStats_FrameCount                     : 84431
    FromStats_StreamSize                     : 216143360

    Audio #2
    ID                                       : 3
    Format                                   : DTS
    Format/Info                              : Digital Theater Systems
    Mode                                     : 16
    Format settings, Endianness              : Big
    Codec ID                                 : A_DTS
    Duration                                 : 45 min 2 s
    Bit rate mode                            : Constant
    Bit rate                                 : 1 509 kb/s
    Channel(s)                               : 6 channels
    Channel positions                        : Front: L C R, Side: L R, LFE
    Sampling rate                            : 48.0 kHz
    Frame rate                               : 93.750 FPS (512 SPF)
    Bit depth                                : 24 bits
    Compression mode                         : Lossy
    Stream size                              : 486 MiB (28%)
    Language                                 : English
    Default                                  : No
    Forced                                   : No
    Statistics Tags Issue                    : mkvmerge v15.0.0 ('Duel with the Devil') 64-bit 2018-09-05 02:27:04 / mkvmerge v15.0.0 ('Duel with the Devil') 64-bit 2018-09-05 02:27:04 / UTC 2018-09-04T08:22:25Z
    FromStats_BitRate                        : 1508999
    FromStats_Duration                       : 00:45:02.699000000
    FromStats_FrameCount                     : 253378
    FromStats_StreamSize                     : 509796536

    Text #1
    ID                                       : 4
    Format                                   : UTF-8
    Codec ID                                 : S_TEXT/UTF8
    Codec ID/Info                            : UTF-8 Plain Text
    Title                                    : SRT-Forzados
    Language                                 : Spanish
    Default                                  : Yes
    Forced                                   : Yes
    Statistics Tags Issue                    : mkvmerge v15.0.0 ('Duel with the Devil') 64-bit 2018-09-05 02:27:04 / mkvmerge v15.0.0 ('Duel with the Devil') 64-bit 2018-09-05 02:27:04 / UTC 2018-09-04T08:22:25Z
    FromStats_BitRate                        : 3
    FromStats_Duration                       : 00:43:39.159000000
    FromStats_FrameCount                     : 39
    FromStats_StreamSize                     : 1207

    Text #2
    ID                                       : 5
    Format                                   : UTF-8
    Codec ID                                 : S_TEXT/UTF8
    Codec ID/Info                            : UTF-8 Plain Text
    Title                                    : SRT-Completos
    Language                                 : Spanish
    Default                                  : No
    Forced                                   : No
    Statistics Tags Issue                    : mkvmerge v15.0.0 ('Duel with the Devil') 64-bit 2018-09-05 02:27:04 / mkvmerge v15.0.0 ('Duel with the Devil') 64-bit 2018-09-05 02:27:04 / UTC 2018-09-04T08:22:25Z
    FromStats_BitRate                        : 54
    FromStats_Duration                       : 00:44:24.162000000
    FromStats_FrameCount                     : 506
    FromStats_StreamSize                     : 18148

    Menu
    00:00:00.000                             : :Chapter 1
    00:05:07.140                             : :Chapter 2
    00:19:24.622                             : :Chapter 3
    00:34:23.228                             : :Chapter 4

  • Peso: 1.70 GiB X Por Capitulo Aproximadamente

Sinopsis

Sigue a un misterioso anarquista que recluta a un joven programador de computadoras (Malek) que sufre de un trastorno antisocial y se conecta a la gente pirateándolos.

 

 

Latino AC3 5.1 Amazon  –  Ingles-DTS 5.1 Bluray

Creditos audio Latino: Sider

Ficha técnica

Video trailer de la película

Enlaces de descarga

Rip de Bluray

Descargar Mr. Robot (2015) Primera Temporada Full 1080p Latino




Aportes de DPeliculasHDmega la pass es:dpeliculashdmega.org Aportes de CinemaniaHD la pass es:cinemaniahdd.com

Películas relacionadas

  • La balada de Buster Scruggs (2018) NF 1080p Latino

    2018
    La balada de Buster Scruggs (2018) NF 1080p Latino

    0.0 2h 12m 2018

    Los siempre singulares Joel y Ethan Cohen escriben y dirigen esta antología de seis historias del Salvaje...

    Director: Joel Coen

    Género: Comedia

    Actores: Zoe Kazan

  • La pequeña brujita (2018) AMZN 1080p Latino

    2018
    La pequeña brujita (2018) AMZN 1080p Latino

    5.0 1h 43m 2018

    Descargar La pequeña brujita (2018) AMZN 1080p Latino, Mega, Google Drive. La pequeña bruja sólo tiene...

    Director: Mike Schaerer

    Género: Comedia

    Actores: Verena Bosshard

  • Puzzle (2018) Web-DL 1080p Latino

    2018
    Puzzle (2018) Web-DL 1080p Latino

    0.0 1h 43m 2018

    Descargar Puzzle (2018) Web-DL 1080p Latino; Mega, Google Drive. Una mujer acude a Atlantic City para...

    Director: Marc Turtletaub

    Género: Drama

    Actores: Myrna Cabello

Comentarios 7
  • rodembar - 17 septiembre, 2018

    pregunta, la tercera temporada la tienen en español latino para subir? no la encuentro por ningun lado hasta llegue a pensar que no fue doblada

    • Dracarys - 17 septiembre, 2018

      hola si la tengo en latino bluray

  • Max - 12 septiembre, 2018

    Subirán las otras 2 temporadas ?¿

    • Dracarys - 12 septiembre, 2018

      si

  • Leonardo Gama Flores - 11 septiembre, 2018

    muchas gracias !!! … cuando suben la 2 y 3 temporada ?? 🙂

    • Dracarys - 12 septiembre, 2018

      pronto

  • Matías - 07 septiembre, 2018

    Gracias por el aporte, esperaba mucho tiempo que la subieran y en español latino. ¡Agradecido por su trabajo!