Marvel’s Daredevil (2018) Tercera Temporada [NF] WEB-DL 1080p Latino

1.001 vistas
1 estrella2 estrellas3 estrellas4 estrellas5 estrellas (5 votos, promedio: 4,20 de 5)
Cargando…

Información de Marvel’s Daredevil (2018) Tercera Temporada [NF] WEB-DL 1080p Latino

Datos de la película

  • Calidad: WEBDL
  • Audio: Español Latino AC3 5.1 Netflix - Ingles AC3 5.1 Netflix
  • Subtitulos: Español Latino SRT- FORZADOS SRT
  • Resolución: 1920x1080p
  • Formato: MKV
  • Codec: H.264
  • Encoder: Dracarys
  • Mediainfo: Clic para Mostrar Datos Ver
  • Format                                   : Matroska
    Format version                           : Version 4 / Version 2
    File size                                : 1.59 GiB
    Duration                                 : 54 min 24 s
    Overall bit rate mode                    : Variable
    Overall bit rate                         : 4 181 kb/s
    Movie name                               : CinemaniaHDD.net
    Encoded date                             : UTC 2018-10-20 02:54:27
    Writing application                      : mkvmerge v15.0.0 ('Duel with the Devil') 64-bit
    Writing library                          : libebml v1.3.5 + libmatroska v1.4.5

    Video
    ID                                       : 1
    Format                                   : AVC
    Format/Info                              : Advanced Video Codec
    Format profile                           : Main@L4
    Format settings                          : CABAC / 3 Ref Frames
    Format settings, CABAC                   : Yes
    Format settings, RefFrames               : 3 frames
    Codec ID                                 : V_MPEG4/ISO/AVC
    Duration                                 : 54 min 23 s
    Bit rate mode                            : Variable
    Bit rate                                 : 3 480 kb/s
    Maximum bit rate                         : 5 220 kb/s
    Width                                    : 1 920 pixels
    Height                                   : 1 080 pixels
    Display aspect ratio                     : 16:9
    Frame rate mode                          : Constant
    Frame rate                               : 23.976 (24000/1001) FPS
    Color space                              : YUV
    Chroma subsampling                       : 4:2:0
    Bit depth                                : 8 bits
    Scan type                                : Progressive
    Bits/(Pixel*Frame)                       : 0.070
    Stream size                              : 1.30 GiB (82%)
    Writing library                          : x264 core 148 r2715 7e75228
    Encoding settings                        : cabac=1 / ref=3 / deblock=1:0:0 / analyse=0x1:0x111 / me=umh / subme=10 / psy=1 / psy_rd=1.00:0.00 / mixed_ref=1 / me_range=24 / chroma_me=1 / trellis=2 / 8x8dct=0 / cqm=0 / deadzone=21,11 / fast_pskip=1 / chroma_qp_offset=-2 / threads=8 / lookahead_threads=1 / sliced_threads=0 / nr=0 / decimate=1 / interlaced=0 / bluray_compat=0 / stitchable=1 / constrained_intra=0 / bframes=2 / b_pyramid=0 / b_adapt=2 / b_bias=0 / direct=3 / weightb=1 / open_gop=0 / weightp=2 / keyint=48 / keyint_min=25 / scenecut=0 / intra_refresh=0 / rc_lookahead=48 / rc=2pass / mbtree=1 / bitrate=3480 / ratetol=1.0 / qcomp=0.50 / qpmin=6 / qpmax=51 / qpstep=4 / cplxblur=20.0 / qblur=0.5 / vbv_maxrate=5220 / vbv_bufsize=6960 / nal_hrd=vbr / filler=0 / ip_ratio=1.40 / aq=1:1.00
    Language                                 : English
    Default                                  : Yes
    Forced                                   : No

    Audio #1
    ID                                       : 2
    Format                                   : AC-3
    Format/Info                              : Audio Coding 3
    Format settings, Endianness              : Big
    Codec ID                                 : A_AC3
    Duration                                 : 54 min 24 s
    Bit rate mode                            : Constant
    Bit rate                                 : 384 kb/s
    Channel(s)                               : 6 channels
    Channel positions                        : Front: L C R, Side: L R, LFE
    Sampling rate                            : 48.0 kHz
    Frame rate                               : 31.250 FPS (1536 SPF)
    Bit depth                                : 16 bits
    Compression mode                         : Lossy
    Stream size                              : 149 MiB (9%)
    Language                                 : Spanish
    Service kind                             : Complete Main
    Default                                  : Yes
    Forced                                   : No

    Audio #2
    ID                                       : 3
    Format                                   : AC-3
    Format/Info                              : Audio Coding 3
    Format settings, Endianness              : Big
    Codec ID                                 : A_AC3
    Duration                                 : 54 min 24 s
    Bit rate mode                            : Constant
    Bit rate                                 : 384 kb/s
    Channel(s)                               : 6 channels
    Channel positions                        : Front: L C R, Side: L R, LFE
    Sampling rate                            : 48.0 kHz
    Frame rate                               : 31.250 FPS (1536 SPF)
    Bit depth                                : 16 bits
    Compression mode                         : Lossy
    Stream size                              : 149 MiB (9%)
    Language                                 : English
    Service kind                             : Complete Main
    Default                                  : No
    Forced                                   : No

    Text #1
    ID                                       : 4
    Format                                   : UTF-8
    Codec ID                                 : S_TEXT/UTF8
    Codec ID/Info                            : UTF-8 Plain Text
    Duration                                 : 44 min 47 s
    Bit rate                                 : 0 b/s
    Count of elements                        : 5
    Stream size                              : 132 Bytes (0%)
    Title                                    : Forzados
    Language                                 : Spanish
    Default                                  : No
    Forced                                   : Yes

    Text #2
    ID                                       : 5
    Format                                   : UTF-8
    Codec ID                                 : S_TEXT/UTF8
    Codec ID/Info                            : UTF-8 Plain Text
    Duration                                 : 52 min 46 s
    Bit rate                                 : 43 b/s
    Count of elements                        : 586
    Stream size                              : 16.8 KiB (0%)
    Language                                 : Spanish
    Default                                  : No
    Forced                                   : No

     

  • Peso: 1.50 GiB X Capitulo

Sinopsis

La tercera temporada de Daredevil arranca meses después de los eventos sucedidos al final de The Defenders, en un tiempo comprendido entre un año y seis meses. Tras sobrevivir a su fatídico último encuentro con la Mano y su líder el Cielo Negro, Matt Murdock (Charlie Cox) despierta en la parroquia en la que se crió tras morir su padre. Las monjas y el sacerdote que lo criaron se encargan de atender su cuerpo, pero su mente y su alma distan mucho de estar salvadas.

Mientras Matt se recupera, sus amigos continúan adelante con sus vidas, muy a su pesar. Sin embargo, negros nubarrones se ciernen el horizonte para Karen Page (Deborah Ann Woll) y Foggy Nelson (Elden Henson), ya que el siniestro criminal Wilson Fisk (Vincent D’Onofrio) comienza una sórdida y retorcida maniobra para salir de prisión y recuperar su dominio sobre Nueva York y la Cocina del Infierno. ¿Con Daredevil fuera de circulación, habrá alguien que pueda detenerlo?

Ficha técnica

Video trailer de la película

Enlaces de descarga

Rip de Bluray

Descargar Marvel’s Daredevil (2018) Tercera Temporada [NF] WEB-DL 1080p Latino




Aportes de DPeliculasHDmega la pass es:dpeliculashdmega.org Aportes de CinemaniaHD la pass es:cinemaniahdd.com
Guardado en : Acción , Crimen , Series

Películas relacionadas

Comentarios 0