Mara (2018) Full 1080p Subtitulado

1.011 vistas
1 estrella2 estrellas3 estrellas4 estrellas5 estrellas (1 votos, promedio: 5,00 de 5)
Cargando…

Información de Mara (2018) Full 1080p Subtitulado

Datos de la película

  • Calidad: Full 1080p
  • Audio: Ingles DTS 5.1 BLURAY
  • Subtitulos: Español Latino PGS - Ingles PGS
  • Resolución: 1920x1080p
  • Formato: MKV
  • Codec: H.264
  • Encoder: Dracarys
  • Mediainfo: Clic para Mostrar Datos Ver
  • Format                                   : Matroska
    Format version                           : Version 4 / Version 2
    File size                                : 2.38 GiB
    Duration                                 : 1 h 39 min
    Overall bit rate                         : 3 434 kb/s
    Movie name                               : CinemaniaHDD.net
    Encoded date                             : UTC 2018-11-21 23:59:13 / UTC 2018-11-21T16:40:39Z
    Writing application                      : mkvmerge v15.0.0 ('Duel with the Devil') 64-bit
    Writing library                          : libebml v1.3.5 + libmatroska v1.4.5 / Lavf57.7.2

    Video
    ID                                       : 1
    Format                                   : AVC
    Format/Info                              : Advanced Video Codec
    Format profile                           : High@L4.1
    Format settings                          : CABAC / 4 Ref Frames
    Format settings, CABAC                   : Yes
    Format settings, RefFrames               : 4 frames
    Codec ID                                 : V_MPEG4/ISO/AVC
    Duration                                 : 1 h 39 min
    Bit rate                                 : 1 856 kb/s
    Width                                    : 1 920 pixels
    Height                                   : 1 080 pixels
    Display aspect ratio                     : 16:9
    Frame rate mode                          : Constant
    Frame rate                               : 23.976 (24000/1001) FPS
    Color space                              : YUV
    Chroma subsampling                       : 4:2:0
    Bit depth                                : 8 bits
    Scan type                                : Progressive
    Bits/(Pixel*Frame)                       : 0.037
    Stream size                              : 1.28 GiB (54%)
    Writing library                          : x264 core 148 r2708 86b7198
    Encoding settings                        : cabac=1 / ref=4 / deblock=1:0:0 / analyse=0x3:0x133 / me=esa / subme=10 / psy=1 / psy_rd=1.00:0.00 / mixed_ref=1 / me_range=24 / chroma_me=1 / trellis=2 / 8x8dct=1 / cqm=0 / deadzone=21,11 / fast_pskip=1 / chroma_qp_offset=-2 / threads=34 / lookahead_threads=5 / sliced_threads=0 / nr=0 / decimate=1 / interlaced=0 / bluray_compat=0 / constrained_intra=0 / bframes=8 / b_pyramid=2 / b_adapt=2 / b_bias=0 / direct=3 / weightb=1 / open_gop=0 / weightp=2 / keyint=240 / keyint_min=24 / scenecut=40 / intra_refresh=0 / rc_lookahead=60 / rc=crf / mbtree=1 / crf=20.0 / qcomp=0.60 / qpmin=0 / qpmax=69 / qpstep=4 / vbv_maxrate=62500 / vbv_bufsize=78125 / crf_max=0.0 / nal_hrd=none / filler=0 / ip_ratio=1.40 / aq=1:1.00
    Language                                 : English
    Default                                  : Yes
    Forced                                   : No
    Color range                              : Limited
    Color primaries                          : BT.709
    Transfer characteristics                 : BT.709
    Matrix coefficients                      : BT.709
    Statistics Tags Issue                    : mkvmerge v15.0.0 ('Duel with the Devil') 64-bit 2018-11-21 23:59:13 / mkvmerge v15.0.0 ('Duel with the Devil') 64-bit 2018-11-21 23:59:13 / UTC 2018-11-21T16:40:39Z
    FromStats_BitRate                        : 1894735
    FromStats_Duration                       : 01:39:04.939000000
    FromStats_FrameCount                     : 142536
    FromStats_StreamSize                     : 1408010802

    Audio
    ID                                       : 2
    Format                                   : DTS
    Format/Info                              : Digital Theater Systems
    Mode                                     : 16
    Format settings, Endianness              : Big
    Codec ID                                 : A_DTS
    Duration                                 : 1 h 39 min
    Bit rate mode                            : Constant
    Bit rate                                 : 1 509 kb/s
    Channel(s)                               : 6 channels
    Channel positions                        : Front: L C R, Side: L R, LFE
    Sampling rate                            : 48.0 kHz
    Frame rate                               : 93.750 FPS (512 SPF)
    Bit depth                                : 24 bits
    Compression mode                         : Lossy
    Delay relative to video                  : 53 ms
    Stream size                              : 1.04 GiB (44%)
    Language                                 : English
    Default                                  : Yes
    Forced                                   : No
    Statistics Tags Issue                    : mkvmerge v15.0.0 ('Duel with the Devil') 64-bit 2018-11-21 23:59:13 / mkvmerge v15.0.0 ('Duel with the Devil') 64-bit 2018-11-21 23:59:13 / UTC 2018-11-21T16:40:39Z
    FromStats_BitRate                        : 1508999
    FromStats_Duration                       : 01:39:04.918000000
    FromStats_FrameCount                     : 557336
    FromStats_StreamSize                     : 1121360032

    Text #1
    ID                                       : 3
    Format                                   : PGS
    Muxing mode                              : zlib
    Codec ID                                 : S_HDMV/PGS
    Codec ID/Info                            : Picture based subtitle format used on BDs/HD-DVDs
    Language                                 : English
    Default                                  : No
    Forced                                   : No
    Statistics Tags Issue                    : mkvmerge v15.0.0 ('Duel with the Devil') 64-bit 2018-11-21 23:59:13 / mkvmerge v15.0.0 ('Duel with the Devil') 64-bit 2018-11-21 23:59:13 / UTC 2018-11-21T16:40:39Z
    FromStats_BitRate                        : 34896
    FromStats_Duration                       : 01:34:11.604000000
    FromStats_FrameCount                     : 2350
    FromStats_StreamSize                     : 24652753

    Text #2
    ID                                       : 4
    Format                                   : PGS
    Muxing mode                              : zlib
    Codec ID                                 : S_HDMV/PGS
    Codec ID/Info                            : Picture based subtitle format used on BDs/HD-DVDs
    Language                                 : Spanish
    Default                                  : Yes
    Forced                                   : Yes
    Statistics Tags Issue                    : mkvmerge v15.0.0 ('Duel with the Devil') 64-bit 2018-11-21 23:59:13 / mkvmerge v15.0.0 ('Duel with the Devil') 64-bit 2018-11-21 23:59:13 / UTC 2018-11-21T16:40:39Z
    FromStats_BitRate                        : 25437
    FromStats_Duration                       : 01:31:46.418000000
    FromStats_FrameCount                     : 1616
    FromStats_StreamSize                     : 17508415

    Menu
    00:00:00.000                             : :Chapter 1
    00:05:37.504                             : :Chapter 2
    00:12:59.195                             : :Chapter 3
    00:17:48.317                             : :Chapter 4
    00:24:14.870                             : :Chapter 5
    00:29:21.301                             : :Chapter 6
    00:38:57.710                             : :Chapter 7
    00:43:11.214                             : :Chapter 8
    00:49:14.869                             : :Chapter 9
    00:55:35.207                             : :Chapter 10
    01:03:00.944                             : :Chapter 11
    01:06:02.500                             : :Chapter 12
    01:15:13.092                             : :Chapter 13
    01:23:41.725                             : :Chapter 14
    01:28:35.101                             : :Chapter 15
    01:31:52.048                             : :Chapter 16

     

  • Peso: 2.38 GiB

Sinopsis

La psicóloga criminalista Kate Fuller es asignada al caso de asesinato de un hombre que aparentemente fue estrangulado mientras dormía por su esposa, y cuyo único testigo es su hija de ocho años, Sophie. Mientras Kate profundiza en el misterio de un antiguo demonio que mata a las personas mientras duermen, ella comienza a experimentar los mismos síntomas petrificantes que todas las víctimas anteriores. Decidida a resolver el caso y su situación, Kate pasará por una espiral de pesadillas escalofriantes para intentar salvarse a sí misma y a Sophie antes de atreveserse a volver a dormir de nuevo.

Ficha técnica

Video trailer de la película

Enlaces de descarga

Rip de Bluray

Descargar Mara (2018) Full 1080p Subtitulado




Aportes de DPeliculasHDmega la pass es:dpeliculashdmega.org Aportes de CinemaniaHD la pass es:cinemaniahdd.com

Películas relacionadas

  • Godzilla (2014) Full 1080p Latino

    2014
    Godzilla (2014) Full 1080p Latino

    4.2 2h 3m 2014

    Descargar Godzilla (2014) Full 1080p Latino, Mega, Google Drive, Torrent. Gareth Edwards dirige este...

    Director: Jessica Clothier

    Género: Acción

    Actores: Yuki Morita

  • Un pequeño favor (2018) Full 1080p Latino

    2018
    Un pequeño favor (2018) Full 1080p Latino

    5.0 1h 57m 2018

    Descargar Un pequeño favor (2018) Full 1080p Latino, Mega, Google Drive, Torrent. Stephanie es una joven...

    Director: Paul Feig

    Género: Crimen

    Actores: Zach Smadu

  • Un pequeño favor (2018) 1080p Latino

    2018
    Un pequeño favor (2018) 1080p Latino

    5.0 1h 57m 2018

    Un pequeño favor  torrnet Stephanie es una joven madre bloguera de una ciudad pequeña cuya mejor amiga,...

    Director: Paul Feig

    Género: Crimen

    Actores: Zach Smadu

Comentarios 0