Love, Death & Robots (2019) Temporada 1 NF 1080p Latino

2.122 vistas
1 estrella2 estrellas3 estrellas4 estrellas5 estrellas (Ninguna valoración todavía)
Cargando…

Información de Love, Death & Robots (2019) Temporada 1 NF 1080p Latino

Datos de la película

  • Calidad: WEBDL
  • Audio: Español Latino AC3 5.1 Netflix - Ingles AC3 5.1 Netflix
  • Subtitulos: Español Latino SRT- FORZADOS SRT
  • Resolución: 1920x1080
  • Formato: MKV
  • Codec: H.264
  • Encoder: Chesse92
  • Mediainfo: Clic para Mostrar Datos Ver
  • Love, Death x26 Robots S01E01.mkv
    Format                      : Matroska
    Format version              : Version 4
    File size                   : 921 MiB
    Duration                    : 17 min 14 s
    Overall bit rate mode       : Variable
    Overall bit rate            : 7 467 kb/s
    Movie name                  : Love, Death x26 Robots S01E01
    Encoded date                : UTC 2019-03-15 07:52:39 / UTC 2019-03-06 11:09:26
    Writing application         : mkvmerge v11.0.0 ('Alive') 64bit
    Writing library             : libebml v1.3.4 + libmatroska v1.4.5 / Lavf58.0.0

    Video
    ID                          : 1
    Format                      : AVC
    Format/Info                 : Advanced Video Codec
    Format profile              : [email protected]
    Format settings             : CABAC / 3 Ref Frames
    Format settings, CABAC      : Yes
    Format settings, ReFrames   : 3 frames
    Codec ID                    : V_MPEG4/ISO/AVC
    Duration                    : 17 min 14 s
    Bit rate mode               : Variable
    Bit rate                    : 6 551 kb/s
    Nominal bit rate            : 7 150 kb/s
    Maximum bit rate            : 10.7 Mb/s
    Width                       : 1 920 pixels
    Height                      : 1 080 pixels
    Display aspect ratio        : 16:9
    Frame rate mode             : Constant
    Frame rate                  : 24.000 FPS
    Color space                 : YUV
    Chroma subsampling          : 4:2:0
    Bit depth                   : 8 bits
    Scan type                   : Progressive
    Bits/(Pixel*Frame)          : 0.132
    Stream size                 : 808 MiB (88%)
    Title                       : CinemaniaHDD
    Writing library             : x264 core 148 r2715 7e75228
    Encoding settings           : cabac=1 / ref=3 / deblock=1:0:0 / analyse=0x1:0x111 / me=umh / subme=10 / psy=1 / psy_rd=1.00:0.00 / mixed_ref=1 / me_range=24 / chroma_me=1 / trellis=2 / 8x8dct=0 / cqm=0 / deadzone=21,11 / fast_pskip=1 / chroma_qp_offset=-2 / threads=8 / lookahead_threads=1 / sliced_threads=0 / nr=0 / decimate=1 / interlaced=0 / bluray_compat=0 / stitchable=1 / constrained_intra=0 / bframes=2 / b_pyramid=0 / b_adapt=2 / b_bias=0 / direct=3 / weightb=1 / open_gop=0 / weightp=2 / keyint=48 / keyint_min=25 / scenecut=0 / intra_refresh=0 / rc_lookahead=48 / rc=2pass / mbtree=1 / bitrate=7150 / ratetol=1.0 / qcomp=0.50 / qpmin=6 / qpmax=51 / qpstep=4 / cplxblur=20.0 / qblur=0.5 / vbv_maxrate=10725 / vbv_bufsize=14300 / nal_hrd=vbr / filler=0 / ip_ratio=1.40 / aq=1:1.00
    Default                     : Yes
    Forced                      : No
    Statistics Tags Issue       : mkvmerge v11.0.0 ('Alive') 64bit 2019-03-15 07:52:39 / mkvmerge v11.0.0 ('Alive') 64bit 2019-03-15 07:52:39 / UTC 2019-03-06 11:09:26
    FromStats_BitRate           : 6697722
    FromStats_Duration          : 00:17:14.417000000
    FromStats_FrameCount        : 24826
    FromStats_StreamSize        : 866029734

    Audio #1
    ID                          : 2
    Format                      : AC-3
    Format/Info                 : Audio Coding 3
    Commercial name             : Dolby Digital
    Codec ID                    : A_AC3
    Duration                    : 17 min 14 s
    Bit rate mode               : Constant
    Bit rate                    : 384 kb/s
    Channel(s)                  : 6 channels
    Channel layout              : L R C LFE Ls Rs
    Sampling rate               : 48.0 kHz
    Frame rate                  : 31.250 FPS (1536 SPF)
    Bit depth                   : 16 bits
    Compression mode            : Lossy
    Stream size                 : 47.4 MiB (5%)
    Title                       : Español latino [CinemaniaHDD]
    Language                    : Spanish
    Service kind                : Complete Main
    Default                     : Yes
    Forced                      : No
    Encoded date                : UTC 2019-03-06 11:09:22
    Statistics Tags Issue       : mkvmerge v11.0.0 ('Alive') 64bit 2019-03-15 07:52:39 / mkvmerge v11.0.0 ('Alive') 64bit 2019-03-15 07:52:39 / UTC 2019-03-06 11:09:26
    FromStats_BitRate           : 384000
    FromStats_Duration          : 00:17:14.528000000
    FromStats_FrameCount        : 32329
    FromStats_StreamSize        : 49657344

    Audio #2
    ID                          : 3
    Format                      : AC-3
    Format/Info                 : Audio Coding 3
    Commercial name             : Dolby Digital
    Codec ID                    : A_AC3
    Duration                    : 17 min 14 s
    Bit rate mode               : Constant
    Bit rate                    : 384 kb/s
    Channel(s)                  : 6 channels
    Channel layout              : L R C LFE Ls Rs
    Sampling rate               : 48.0 kHz
    Frame rate                  : 31.250 FPS (1536 SPF)
    Bit depth                   : 16 bits
    Compression mode            : Lossy
    Stream size                 : 47.4 MiB (5%)
    Title                       : Inglés [CinemaniaHDD]
    Language                    : English
    Service kind                : Complete Main
    Default                     : No
    Forced                      : No
    Encoded date                : UTC 2019-03-06 11:09:26
    Statistics Tags Issue       : mkvmerge v11.0.0 ('Alive') 64bit 2019-03-15 07:52:39 / mkvmerge v11.0.0 ('Alive') 64bit 2019-03-15 07:52:39 / UTC 2019-03-06 11:09:26
    FromStats_BitRate           : 384000
    FromStats_Duration          : 00:17:14.528000000
    FromStats_FrameCount        : 32329
    FromStats_StreamSize        : 49657344

    Text #1
    ID                          : 4
    Format                      : UTF-8
    Codec ID                    : S_TEXT/UTF8
    Codec ID/Info               : UTF-8 Plain Text
    Title                       : Forzados [CinemaniaHDD]
    Language                    : Spanish
    Default                     : Yes
    Forced                      : Yes
    Statistics Tags Issue       : mkvmerge v11.0.0 ('Alive') 64bit 2019-03-15 07:52:39 / mkvmerge v11.0.0 ('Alive') 64bit 2019-03-15 07:52:39 / UTC 2019-03-06 11:09:26
    FromStats_BitRate           : 0
    FromStats_Duration          : 00:16:31.125000000
    FromStats_FrameCount        : 5
    FromStats_StreamSize        : 111

    Text #2
    ID                          : 5
    Format                      : UTF-8
    Codec ID                    : S_TEXT/UTF8
    Codec ID/Info               : UTF-8 Plain Text
    Title                       : Español latino [CinemaniaHDD]
    Language                    : Spanish
    Default                     : No
    Forced                      : No
    Statistics Tags Issue       : mkvmerge v11.0.0 ('Alive') 64bit 2019-03-15 07:52:39 / mkvmerge v11.0.0 ('Alive') 64bit 2019-03-15 07:52:39 / UTC 2019-03-06 11:09:26
    FromStats_BitRate           : 34
    FromStats_Duration          : 00:16:31.125000000
    FromStats_FrameCount        : 166
    FromStats_StreamSize        : 4296

  • Peso: 8.85 Gb Total)

Sinopsis

Criaturas terroríficas, sorpresas malvadas y comedia oscura convergen en esta antología de historias animadas de NSFW presentadas por Tim Miller y David Fincher.

Ficha técnica

Video trailer de la película

Enlaces de descarga

Rip de Bluray

Descargar Love, Death & Robots (2019) Temporada 1 NF 1080p Latino




Aportes de DPeliculasHDmega la pass es:dpeliculashdmega.org Aportes de CinemaniaHD la pass es:cinemaniahdd.com

Películas relacionadas

Comentarios 0