Los Goonies (1985) Full 1080p Latino

1.894 vistas
1 estrella2 estrellas3 estrellas4 estrellas5 estrellas (3 votos, promedio: 5,00 de 5)
Cargando…

Información de Los Goonies (1985) Full 1080p Latino

Datos de la película

  • Calidad: Full 1080p
  • Audio: Se especifica abajo de la Sinopsis
  • Subtitulos: Español Latino PGS - Ingles PGS
  • Resolución: 1920x1080p
  • Formato: MKV
  • Codec: H.264
  • Encoder: Dracarys
  • Mediainfo: Clic para Mostrar Datos Ver
  • Format                                   : Matroska
    Format version                           : Version 4 / Version 2
    File size                                : 5.82 GiB
    Duration                                 : 1 h 53 min
    Overall bit rate                         : 7 317 kb/s
    Movie name                               : CinemaniaHDD.net
    Encoded date                             : UTC 2018-06-19 22:19:25 / UTC 2018-05-26T21:11:19Z
    Writing application                      : mkvmerge v15.0.0 ('Duel with the Devil') 64-bit
    Writing library                          : libebml v1.3.5 + libmatroska v1.4.5 / Lavf57.7.2

    Video
    ID                                       : 1
    Format                                   : AVC
    Format/Info                              : Advanced Video Codec
    Format profile                           : High@L4.1
    Format settings                          : CABAC / 4 Ref Frames
    Format settings, CABAC                   : Yes
    Format settings, RefFrames               : 4 frames
    Codec ID                                 : V_MPEG4/ISO/AVC
    Duration                                 : 1 h 53 min
    Bit rate                                 : 6 340 kb/s
    Width                                    : 1 920 pixels
    Height                                   : 1 080 pixels
    Display aspect ratio                     : 16:9
    Frame rate mode                          : Constant
    Frame rate                               : 23.976 (24000/1001) FPS
    Color space                              : YUV
    Chroma subsampling                       : 4:2:0
    Bit depth                                : 8 bits
    Scan type                                : Progressive
    Bits/(Pixel*Frame)                       : 0.128
    Stream size                              : 5.04 GiB (87%)
    Title                                    : Los Goonies (1985) Full 1080p Latino
    Writing library                          : x264 core 148 r2708 86b7198
    Encoding settings                        : cabac=1 / ref=4 / deblock=1:0:0 / analyse=0x3:0x133 / me=esa / subme=9 / psy=1 / psy_rd=1.00:0.00 / mixed_ref=1 / me_range=16 / chroma_me=1 / trellis=2 / 8x8dct=1 / cqm=0 / deadzone=21,11 / fast_pskip=1 / chroma_qp_offset=-2 / threads=34 / lookahead_threads=2 / sliced_threads=0 / nr=0 / decimate=1 / interlaced=0 / bluray_compat=0 / constrained_intra=0 / bframes=3 / b_pyramid=2 / b_adapt=2 / b_bias=0 / direct=3 / weightb=1 / open_gop=0 / weightp=2 / keyint=240 / keyint_min=24 / scenecut=40 / intra_refresh=0 / rc_lookahead=60 / rc=crf / mbtree=1 / crf=20.0 / qcomp=0.60 / qpmin=0 / qpmax=69 / qpstep=4 / vbv_maxrate=62500 / vbv_bufsize=78125 / crf_max=0.0 / nal_hrd=none / filler=0 / ip_ratio=1.40 / aq=1:1.00
    Language                                 : English
    Default                                  : Yes
    Forced                                   : No
    Color range                              : Limited
    Color primaries                          : BT.709
    Transfer characteristics                 : BT.709
    Matrix coefficients                      : BT.709
    Statistics Tags Issue                    : mkvmerge v15.0.0 ('Duel with the Devil') 64-bit 2018-06-19 22:19:25 / mkvmerge v15.0.0 ('Duel with the Devil') 64-bit 2018-06-19 22:19:25 / UTC 2018-05-26T21:11:19Z
    FromStats_BitRate                        : 6454084
    FromStats_Duration                       : 01:53:55.329000000
    FromStats_FrameCount                     : 163884
    FromStats_StreamSize                     : 5514473844

    Audio #1
    ID                                       : 2
    Format                                   : AC-3
    Format/Info                              : Audio Coding 3
    Format settings, Endianness              : Big
    Codec ID                                 : A_AC3
    Duration                                 : 1 h 53 min
    Bit rate mode                            : Constant
    Bit rate                                 : 192 kb/s
    Channel(s)                               : 1 channel
    Channel positions                        : Front: C
    Sampling rate                            : 48.0 kHz
    Frame rate                               : 31.250 FPS (1536 SPF)
    Bit depth                                : 16 bits
    Compression mode                         : Lossy
    Stream size                              : 156 MiB (3%)
    Language                                 : Spanish
    Service kind                             : Complete Main
    Default                                  : Yes
    Forced                                   : No
    Statistics Tags Issue                    : mkvmerge v15.0.0 ('Duel with the Devil') 64-bit 2018-06-19 22:19:25 / mkvmerge v15.0.0 ('Duel with the Devil') 64-bit 2018-06-19 22:19:25 / UTC 2018-05-26T21:11:19Z
    FromStats_BitRate                        : 192000
    FromStats_Duration                       : 01:53:55.360000000
    FromStats_FrameCount                     : 213605
    FromStats_StreamSize                     : 164048640

    Audio #2
    ID                                       : 3
    Format                                   : AC-3
    Format/Info                              : Audio Coding 3
    Format settings, Endianness              : Big
    Codec ID                                 : A_AC3
    Duration                                 : 1 h 53 min
    Bit rate mode                            : Constant
    Bit rate                                 : 640 kb/s
    Channel(s)                               : 6 channels
    Channel positions                        : Front: L C R, Side: L R, LFE
    Sampling rate                            : 48.0 kHz
    Frame rate                               : 31.250 FPS (1536 SPF)
    Bit depth                                : 16 bits
    Compression mode                         : Lossy
    Stream size                              : 521 MiB (9%)
    Language                                 : English
    Service kind                             : Complete Main
    Default                                  : No
    Forced                                   : No
    Statistics Tags Issue                    : mkvmerge v15.0.0 ('Duel with the Devil') 64-bit 2018-06-19 22:19:25 / mkvmerge v15.0.0 ('Duel with the Devil') 64-bit 2018-06-19 22:19:25 / UTC 2018-05-26T21:11:19Z
    FromStats_BitRate                        : 640000
    FromStats_Duration                       : 01:53:55.360000000
    FromStats_FrameCount                     : 213605
    FromStats_StreamSize                     : 546828800

    Text #1
    ID                                       : 4
    Format                                   : PGS
    Muxing mode                              : zlib
    Codec ID                                 : S_HDMV/PGS
    Codec ID/Info                            : Picture based subtitle format used on BDs/HD-DVDs
    Language                                 : English
    Default                                  : No
    Forced                                   : No
    Statistics Tags Issue                    : mkvmerge v15.0.0 ('Duel with the Devil') 64-bit 2018-06-19 22:19:25 / mkvmerge v15.0.0 ('Duel with the Devil') 64-bit 2018-06-19 22:19:25 / UTC 2018-05-26T21:11:19Z
    FromStats_BitRate                        : 37156
    FromStats_Duration                       : 01:53:42.190000000
    FromStats_FrameCount                     : 3255
    FromStats_StreamSize                     : 31685829

    Text #2
    ID                                       : 5
    Format                                   : PGS
    Muxing mode                              : zlib
    Codec ID                                 : S_HDMV/PGS
    Codec ID/Info                            : Picture based subtitle format used on BDs/HD-DVDs
    Language                                 : Spanish
    Default                                  : No
    Forced                                   : No
    Statistics Tags Issue                    : mkvmerge v15.0.0 ('Duel with the Devil') 64-bit 2018-06-19 22:19:25 / mkvmerge v15.0.0 ('Duel with the Devil') 64-bit 2018-06-19 22:19:25 / UTC 2018-05-26T21:11:19Z
    FromStats_BitRate                        : 29098
    FromStats_Duration                       : 01:53:25.840000000
    FromStats_FrameCount                     : 2786
    FromStats_StreamSize                     : 24755385

    Menu
    00:00:00.000                             : :Chapter 1
    00:05:04.888                             : :Chapter 2
    00:07:08.970                             : :Chapter 3
    00:09:54.636                             : :Chapter 4
    00:13:49.704                             : :Chapter 5
    00:20:02.493                             : :Chapter 6
    00:22:45.072                             : :Chapter 7
    00:25:37.745                             : :Chapter 8
    00:27:13.340                             : :Chapter 9
    00:30:40.756                             : :Chapter 10
    00:33:34.304                             : :Chapter 11
    00:36:48.498                             : :Chapter 12
    00:38:42.529                             : :Chapter 13
    00:42:13.614                             : :Chapter 14
    00:46:10.768                             : :Chapter 15
    00:48:43.295                             : :Chapter 16
    00:49:47.776                             : :Chapter 17
    00:52:52.503                             : :Chapter 18
    00:55:48.136                             : :Chapter 19
    00:58:12.489                             : :Chapter 20
    00:59:31.485                             : :Chapter 21
    01:03:34.477                             : :Chapter 22
    01:07:12.070                             : :Chapter 23
    01:09:46.265                             : :Chapter 24
    01:12:48.072                             : :Chapter 25
    01:15:20.516                             : :Chapter 26
    01:18:18.777                             : :Chapter 27
    01:22:06.964                             : :Chapter 28
    01:23:39.973                             : :Chapter 29
    01:27:15.397                             : :Chapter 30
    01:30:34.304                             : :Chapter 31
    01:33:39.697                             : :Chapter 32
    01:38:39.288                             : :Chapter 33
    01:41:27.790                             : :Chapter 34
    01:45:15.392                             : :Chapter 35
    01:47:13.385                             : :Chapter 36
    01:48:31.338                             : :Chapter 37

  • Peso: 5.82 GiB

Sinopsis

Mikey es un muchacho de 13 años que junto con su hermano mayor y sus amigos, que se hacen llamar “Los Goonies”, deciden subir a jugar al desván de su casa, donde su padre guarda antigüedades. Allí encuentran el mapa de un tesoro.

 

 

Latino AC3 1.0 Bluray  –  Ingles AC3 5.1 Bluray

Ficha técnica

Video trailer de la película

Enlaces de descarga

Rip de Bluray

Descargar Los Goonies (1985) Full 1080p Latino




Aportes de DPeliculasHDmega la pass es:dpeliculashdmega.org Aportes de CinemaniaHD la pass es:cinemaniahdd.com

Películas relacionadas

  • Godzilla (2014) Full 1080p Latino

    2014
    Godzilla (2014) Full 1080p Latino

    4.2 2h 3m 2014

    Descargar Godzilla (2014) Full 1080p Latino, Mega, Google Drive, Torrent. Gareth Edwards dirige este...

    Director: Jessica Clothier

    Género: Acción

    Actores: Yuki Morita

  • Un pequeño favor (2018) Full 1080p Latino

    2018
    Un pequeño favor (2018) Full 1080p Latino

    5.0 1h 57m 2018

    Descargar Un pequeño favor (2018) Full 1080p Latino, Mega, Google Drive, Torrent. Stephanie es una joven...

    Director: Paul Feig

    Género: Crimen

    Actores: Zach Smadu

  • Antboy 3 (2016) Web-DL 1080p Latino

    2016
    Antboy 3 (2016) Web-DL 1080p Latino

    5.0 1h 16m 2016

    Descargar Antboy 3 (2016) Web-DL 1080p Latino, Mega, Google Drive. Exofarm tiene un nuevo CEO. El nuevo...

    Director: Ask Hasselbalch

    Género: Acción

    Actores: Samuel Ting Graf

Comentarios 0