Los diez mandamientos (1956) [Parte 2] Full 1080p Latino

1.468 vistas
1 estrella2 estrellas3 estrellas4 estrellas5 estrellas (1 votos, promedio: 5,00 de 5)
Cargando…

Información de Los diez mandamientos (1956) [Parte 2] Full 1080p Latino

Datos de la película

  • Calidad: Full 1080p
  • Audio: Español Latino AC3 2.0 BLURAY - Ingles DTS 5.1 BLURAY
  • Subtitulos: Español Latino PGS - Ingles PGS
  • Resolución: 1920x1080p
  • Formato: MKV
  • Codec: H.264
  • Encoder: Dracarys
  • Mediainfo: Clic para Mostrar Datos Ver
  • Format                                   : Matroska
    Format version                           : Version 4 / Version 2
    File size                                : 6.79 GiB
    Duration                                 : 1 h 35 min
    Overall bit rate                         : 10.1 Mb/s
    Movie name                               : CinemaniaHDD.com
    Encoded date                             : UTC 2018-03-31 01:57:36 / UTC 2018-03-30T15:38:57Z
    Writing application                      : mkvmerge v15.0.0 ('Duel with the Devil') 64-bit
    Writing library                          : libebml v1.3.5 + libmatroska v1.4.5 / Lavf57.7.2

    Video
    ID                                       : 1
    Format                                   : AVC
    Format/Info                              : Advanced Video Codec
    Format profile                           : [email protected]
    Format settings                          : CABAC / 4 Ref Frames
    Format settings, CABAC                   : Yes
    Format settings, RefFrames               : 4 frames
    Codec ID                                 : V_MPEG4/ISO/AVC
    Duration                                 : 1 h 35 min
    Bit rate                                 : 8 237 kb/s
    Width                                    : 1 920 pixels
    Height                                   : 1 080 pixels
    Display aspect ratio                     : 16:9
    Frame rate mode                          : Constant
    Frame rate                               : 23.976 (24000/1001) FPS
    Color space                              : YUV
    Chroma subsampling                       : 4:2:0
    Bit depth                                : 8 bits
    Scan type                                : Progressive
    Bits/(Pixel*Frame)                       : 0.166
    Stream size                              : 5.51 GiB (81%)
    Title                                    : Los diez mandamientos (1956) [Parte 2] Full 1080p Latino
    Writing library                          : x264 core 148 r2708 86b7198
    Encoding settings                        : cabac=1 / ref=4 / deblock=1:0:0 / analyse=0x3:0x133 / me=esa / subme=9 / psy=1 / psy_rd=1.00:0.00 / mixed_ref=1 / me_range=16 / chroma_me=1 / trellis=2 / 8x8dct=1 / cqm=0 / deadzone=21,11 / fast_pskip=1 / chroma_qp_offset=-2 / threads=34 / lookahead_threads=2 / sliced_threads=0 / nr=0 / decimate=1 / interlaced=0 / bluray_compat=0 / constrained_intra=0 / bframes=3 / b_pyramid=2 / b_adapt=2 / b_bias=0 / direct=3 / weightb=1 / open_gop=0 / weightp=2 / keyint=240 / keyint_min=24 / scenecut=40 / intra_refresh=0 / rc_lookahead=60 / rc=crf / mbtree=1 / crf=20.0 / qcomp=0.60 / qpmin=0 / qpmax=69 / qpstep=4 / vbv_maxrate=62500 / vbv_bufsize=78125 / crf_max=0.0 / nal_hrd=none / filler=0 / ip_ratio=1.40 / aq=1:1.00
    Language                                 : English
    Default                                  : Yes
    Forced                                   : No
    Color range                              : Limited
    Color primaries                          : BT.709
    Transfer characteristics                 : BT.709
    Matrix coefficients                      : BT.709
    Statistics Tags Issue                    : mkvmerge v15.0.0 ('Duel with the Devil') 64-bit 2018-03-31 01:57:36 / mkvmerge v15.0.0 ('Duel with the Devil') 64-bit 2018-03-31 01:57:36 / UTC 2018-03-30T15:38:57Z
    FromStats_BitRate                        : 8410949
    FromStats_Duration                       : 01:35:49.619000000
    FromStats_FrameCount                     : 137853
    FromStats_StreamSize                     : 6044969607

    Audio #1
    ID                                       : 2
    Format                                   : AC-3
    Format/Info                              : Audio Coding 3
    Format settings, Endianness              : Big
    Codec ID                                 : A_AC3
    Duration                                 : 1 h 35 min
    Bit rate mode                            : Constant
    Bit rate                                 : 192 kb/s
    Channel(s)                               : 2 channels
    Channel positions                        : Front: L R
    Sampling rate                            : 48.0 kHz
    Frame rate                               : 31.250 FPS (1536 SPF)
    Bit depth                                : 16 bits
    Compression mode                         : Lossy
    Stream size                              : 132 MiB (2%)
    Language                                 : Spanish
    Service kind                             : Complete Main
    Default                                  : Yes
    Forced                                   : No
    Statistics Tags Issue                    : mkvmerge v15.0.0 ('Duel with the Devil') 64-bit 2018-03-31 01:57:36 / mkvmerge v15.0.0 ('Duel with the Devil') 64-bit 2018-03-31 01:57:36 / UTC 2018-03-30T15:38:57Z
    FromStats_BitRate                        : 192000
    FromStats_Duration                       : 01:35:49.632000000
    FromStats_FrameCount                     : 179676
    FromStats_StreamSize                     : 137991168

    Audio #2
    ID                                       : 3
    Format                                   : DTS
    Format/Info                              : Digital Theater Systems
    Mode                                     : 16
    Format settings, Endianness              : Big
    Codec ID                                 : A_DTS
    Duration                                 : 1 h 35 min
    Bit rate mode                            : Constant
    Bit rate                                 : 1 509 kb/s
    Channel(s)                               : 6 channels
    Channel positions                        : Front: L C R, Side: L R, LFE
    Sampling rate                            : 48.0 kHz
    Frame rate                               : 93.750 FPS (512 SPF)
    Bit depth                                : 24 bits
    Compression mode                         : Lossy
    Stream size                              : 1.01 GiB (15%)
    Language                                 : English
    Default                                  : No
    Forced                                   : No
    Statistics Tags Issue                    : mkvmerge v15.0.0 ('Duel with the Devil') 64-bit 2018-03-31 01:57:36 / mkvmerge v15.0.0 ('Duel with the Devil') 64-bit 2018-03-31 01:57:36 / UTC 2018-03-30T15:38:57Z
    FromStats_BitRate                        : 1508999
    FromStats_Duration                       : 01:35:49.611000000
    FromStats_FrameCount                     : 539026
    FromStats_StreamSize                     : 1084520312

    Text #1
    ID                                       : 4
    Format                                   : PGS
    Muxing mode                              : zlib
    Codec ID                                 : S_HDMV/PGS
    Codec ID/Info                            : Picture based subtitle format used on BDs/HD-DVDs
    Language                                 : English
    Default                                  : No
    Forced                                   : No
    Statistics Tags Issue                    : mkvmerge v15.0.0 ('Duel with the Devil') 64-bit 2018-03-31 01:57:36 / mkvmerge v15.0.0 ('Duel with the Devil') 64-bit 2018-03-31 01:57:36 / UTC 2018-03-30T15:38:57Z
    FromStats_BitRate                        : 46875
    FromStats_Duration                       : 01:28:03.570000000
    FromStats_FrameCount                     : 2041
    FromStats_StreamSize                     : 30958710

    Text #2
    ID                                       : 5
    Format                                   : PGS
    Muxing mode                              : zlib
    Codec ID                                 : S_HDMV/PGS
    Codec ID/Info                            : Picture based subtitle format used on BDs/HD-DVDs
    Language                                 : Spanish
    Default                                  : No
    Forced                                   : No
    Statistics Tags Issue                    : mkvmerge v15.0.0 ('Duel with the Devil') 64-bit 2018-03-31 01:57:36 / mkvmerge v15.0.0 ('Duel with the Devil') 64-bit 2018-03-31 01:57:36 / UTC 2018-03-30T15:38:57Z
    FromStats_BitRate                        : 42533
    FromStats_Duration                       : 01:31:10.882000000
    FromStats_FrameCount                     : 1887
    FromStats_StreamSize                     : 29086976

    Menu
    00:00:00.000                             : :Chapter 1
    00:02:16.303                             : :Chapter 2
    00:07:32.285                             : :Chapter 3
    00:09:20.769                             : :Chapter 4
    00:14:00.465                             : :Chapter 5
    00:21:28.412                             : :Chapter 6
    00:28:43.180                             : :Chapter 7
    00:30:57.731                             : :Chapter 8
    00:39:24.821                             : :Chapter 9
    00:43:10.838                             : :Chapter 10
    00:54:11.999                             : :Chapter 11
    00:58:34.886                             : :Chapter 12
    01:03:39.190                             : :Chapter 13
    01:13:17.143                             : :Chapter 14
    01:16:12.651                             : :Chapter 15
    01:22:06.130                             : :Chapter 16
    01:24:45.998                             : :Chapter 17
    01:27:16.773                             : :Chapter 18
    01:31:05.752                             : :Chapter 19

  • Peso: 6.79 GiB

Sinopsis

Drama bíblico ambientado en el Antiguo Egipto que narra la historia de Moisés, favorito de la familia del faraón, que decide renunciar a su vida de privilegios para conducir a su pueblo, los hebreos esclavizados en Egipto, hacia la libertad.

Ficha técnica

Video trailer de la película

Enlaces de descarga

Rip de Bluray

Descargar Los diez mandamientos (1956) [Parte 2] Full 1080p Latino




Aportes de DPeliculasHDmega la pass es:dpeliculashdmega.org Aportes de CinemaniaHD la pass es:cinemaniahdd.com

Películas relacionadas

  • Coisa Mais Linda (2019) Temporada 1 NF 1080p Latino

    2019
    Coisa Mais Linda (2019) Temporada 1 NF 1080p Latino

    5.0 0h 45m 2019

    Una ama de casa de la década de 1950 va a Río de Janeiro para reunirse con su esposo, solo para enterarse...

    Director: Heather Roth

    Género: Drama

    Actores: Thaila Ayala

  • Lost Serie Completa 1,2,3,4,5 y 6 NF WEB-DL 1080p Latino

    2004
    Lost Serie Completa 1,2,3,4,5 y 6 NF WEB-DL 1080p Latino

    0.0 0h 45m 2004

    'Lost' en su versión original, 'Perdidos' en su versión española, es una serie creada por J. J. Abrams...

    Director: Jeffrey Lieber

    Género: Action & Adventure

    Actores: Terry O'Quinn

  • El hotel gran Budapest (2014) Full HD1080p Latino

    2014
    El hotel gran Budapest (2014) Full HD1080p Latino

    0.0 1h 39m 2014

    El Sr. Gustave H., un legendario conserje de un famoso hotel europeo de entreguerras, entabla amistad...

    Director: Wes Anderson

    Género: Comedia

    Actores: Wolfram Nielacny

  • FBI (2018) Temporada 1 1080p WEB-DL Latino

    2018
    FBI (2018) Temporada 1 1080p WEB-DL Latino

    0.0 0h 43m 2018

    Serie de TV (2018-). Drama vertiginoso sobre el funcionamiento interno de la oficina de Nueva York del...

    Director: Dick Wolf

    Género: Crimen

    Actores: Zeeko Zaki

Comentarios 1
  • Jorge - 03 abril, 2018

    Los clásicos de Hollywood nunca pasarán de moda. Muchas gracias y que contúen.