Los diez mandamientos (1956) [Parte 1] Full 1080p Latino

1.675 vistas
1 estrella2 estrellas3 estrellas4 estrellas5 estrellas (1 votos, promedio: 5,00 de 5)
Cargando…

Información de Los diez mandamientos (1956) [Parte 1] Full 1080p Latino

Datos de la película

  • Calidad: Full 1080p
  • Audio: Español Latino AC3 2.0 BLURAY - Ingles DTS 5.1 BLURAY
  • Subtitulos: Español Latino PGS - Ingles PGS
  • Resolución: 1920x1080p
  • Formato: MKV
  • Codec: H.264
  • Encoder: Dracarys
  • Mediainfo: Clic para Mostrar Datos Ver
  • Format                                   : Matroska
    Format version                           : Version 4 / Version 2
    File size                                : 10.4 GiB
    Duration                                 : 2 h 15 min
    Overall bit rate                         : 11.0 Mb/s
    Movie name                               : CinemaniaHDD.com
    Encoded date                             : UTC 2018-03-31 00:43:46 / UTC 2018-03-30T11:42:37Z
    Writing application                      : mkvmerge v15.0.0 ('Duel with the Devil') 64-bit
    Writing library                          : libebml v1.3.5 + libmatroska v1.4.5 / Lavf57.7.2

    Video
    ID                                       : 1
    Format                                   : AVC
    Format/Info                              : Advanced Video Codec
    Format profile                           : [email protected]
    Format settings                          : CABAC / 4 Ref Frames
    Format settings, CABAC                   : Yes
    Format settings, RefFrames               : 4 frames
    Codec ID                                 : V_MPEG4/ISO/AVC
    Duration                                 : 2 h 15 min
    Bit rate                                 : 9 090 kb/s
    Width                                    : 1 920 pixels
    Height                                   : 1 080 pixels
    Display aspect ratio                     : 16:9
    Frame rate mode                          : Constant
    Frame rate                               : 23.976 (24000/1001) FPS
    Color space                              : YUV
    Chroma subsampling                       : 4:2:0
    Bit depth                                : 8 bits
    Scan type                                : Progressive
    Bits/(Pixel*Frame)                       : 0.183
    Stream size                              : 8.62 GiB (83%)
    Title                                    : Los diez mandamientos (1956) [Parte 1] Full 1080p Latino
    Writing library                          : x264 core 148 r2708 86b7198
    Encoding settings                        : cabac=1 / ref=4 / deblock=1:0:0 / analyse=0x3:0x133 / me=esa / subme=9 / psy=1 / psy_rd=1.00:0.00 / mixed_ref=1 / me_range=16 / chroma_me=1 / trellis=2 / 8x8dct=1 / cqm=0 / deadzone=21,11 / fast_pskip=1 / chroma_qp_offset=-2 / threads=34 / lookahead_threads=2 / sliced_threads=0 / nr=0 / decimate=1 / interlaced=0 / bluray_compat=0 / constrained_intra=0 / bframes=3 / b_pyramid=2 / b_adapt=2 / b_bias=0 / direct=3 / weightb=1 / open_gop=0 / weightp=2 / keyint=240 / keyint_min=24 / scenecut=40 / intra_refresh=0 / rc_lookahead=60 / rc=crf / mbtree=1 / crf=20.0 / qcomp=0.60 / qpmin=0 / qpmax=69 / qpstep=4 / vbv_maxrate=62500 / vbv_bufsize=78125 / crf_max=0.0 / nal_hrd=none / filler=0 / ip_ratio=1.40 / aq=1:1.00
    Language                                 : English
    Default                                  : Yes
    Forced                                   : No
    Color range                              : Limited
    Color primaries                          : BT.709
    Transfer characteristics                 : BT.709
    Matrix coefficients                      : BT.709
    Statistics Tags Issue                    : mkvmerge v15.0.0 ('Duel with the Devil') 64-bit 2018-03-31 00:43:46 / mkvmerge v15.0.0 ('Duel with the Devil') 64-bit 2018-03-31 00:43:46 / UTC 2018-03-30T11:42:37Z
    FromStats_BitRate                        : 9277531
    FromStats_Duration                       : 02:15:48.808000000
    FromStats_FrameCount                     : 195376
    FromStats_StreamSize                     : 9450102587

    Audio #1
    ID                                       : 2
    Format                                   : AC-3
    Format/Info                              : Audio Coding 3
    Format settings, Endianness              : Big
    Codec ID                                 : A_AC3
    Duration                                 : 2 h 15 min
    Bit rate mode                            : Constant
    Bit rate                                 : 192 kb/s
    Channel(s)                               : 2 channels
    Channel positions                        : Front: L R
    Sampling rate                            : 48.0 kHz
    Frame rate                               : 31.250 FPS (1536 SPF)
    Bit depth                                : 16 bits
    Compression mode                         : Lossy
    Stream size                              : 187 MiB (2%)
    Language                                 : Spanish
    Service kind                             : Complete Main
    Default                                  : Yes
    Forced                                   : No
    Statistics Tags Issue                    : mkvmerge v15.0.0 ('Duel with the Devil') 64-bit 2018-03-31 00:43:46 / mkvmerge v15.0.0 ('Duel with the Devil') 64-bit 2018-03-31 00:43:46 / UTC 2018-03-30T11:42:37Z
    FromStats_BitRate                        : 192000
    FromStats_Duration                       : 02:15:48.832000000
    FromStats_FrameCount                     : 254651
    FromStats_StreamSize                     : 195571968

    Audio #2
    ID                                       : 3
    Format                                   : DTS
    Format/Info                              : Digital Theater Systems
    Mode                                     : 16
    Format settings, Endianness              : Big
    Codec ID                                 : A_DTS
    Duration                                 : 2 h 15 min
    Bit rate mode                            : Constant
    Bit rate                                 : 1 509 kb/s
    Channel(s)                               : 6 channels
    Channel positions                        : Front: L C R, Side: L R, LFE
    Sampling rate                            : 48.0 kHz
    Frame rate                               : 93.750 FPS (512 SPF)
    Bit depth                                : 24 bits
    Compression mode                         : Lossy
    Stream size                              : 1.43 GiB (14%)
    Language                                 : English
    Default                                  : No
    Forced                                   : No
    Statistics Tags Issue                    : mkvmerge v15.0.0 ('Duel with the Devil') 64-bit 2018-03-31 00:43:46 / mkvmerge v15.0.0 ('Duel with the Devil') 64-bit 2018-03-31 00:43:46 / UTC 2018-03-30T11:42:37Z
    FromStats_BitRate                        : 1509000
    FromStats_Duration                       : 02:15:48.800000000
    FromStats_FrameCount                     : 763950
    FromStats_StreamSize                     : 1537067400

    Text #1
    ID                                       : 4
    Format                                   : PGS
    Muxing mode                              : zlib
    Codec ID                                 : S_HDMV/PGS
    Codec ID/Info                            : Picture based subtitle format used on BDs/HD-DVDs
    Language                                 : English
    Default                                  : No
    Forced                                   : No
    Statistics Tags Issue                    : mkvmerge v15.0.0 ('Duel with the Devil') 64-bit 2018-03-31 00:43:46 / mkvmerge v15.0.0 ('Duel with the Devil') 64-bit 2018-03-31 00:43:46 / UTC 2018-03-30T11:42:37Z
    FromStats_BitRate                        : 49278
    FromStats_Duration                       : 02:13:27.791000000
    FromStats_FrameCount                     : 3194
    FromStats_StreamSize                     : 49326189

    Text #2
    ID                                       : 5
    Format                                   : PGS
    Muxing mode                              : zlib
    Codec ID                                 : S_HDMV/PGS
    Codec ID/Info                            : Picture based subtitle format used on BDs/HD-DVDs
    Language                                 : Spanish
    Default                                  : No
    Forced                                   : No
    Statistics Tags Issue                    : mkvmerge v15.0.0 ('Duel with the Devil') 64-bit 2018-03-31 00:43:46 / mkvmerge v15.0.0 ('Duel with the Devil') 64-bit 2018-03-31 00:43:46 / UTC 2018-03-30T11:42:37Z
    FromStats_BitRate                        : 49366
    FromStats_Duration                       : 02:15:39.798000000
    FromStats_FrameCount                     : 3218
    FromStats_StreamSize                     : 50229631

    Menu
    00:00:00.000                             : :Chapter 1
    00:01:39.891                             : :Chapter 2
    00:04:06.955                             : :Chapter 3
    00:09:44.501                             : :Chapter 4
    00:12:55.233                             : :Chapter 5
    00:17:05.066                             : :Chapter 6
    00:20:22.638                             : :Chapter 7
    00:25:57.806                             : :Chapter 8
    00:27:29.648                             : :Chapter 9
    00:30:48.805                             : :Chapter 10
    00:36:17.175                             : :Chapter 11
    00:38:17.587                             : :Chapter 12
    00:43:46.541                             : :Chapter 13
    00:49:26.881                             : :Chapter 14
    00:59:29.733                             : :Chapter 15
    01:07:29.045                             : :Chapter 16
    01:15:25.938                             : :Chapter 17
    01:18:42.635                             : :Chapter 18
    01:27:31.580                             : :Chapter 19
    01:38:42.667                             : :Chapter 20
    01:41:58.696                             : :Chapter 21
    01:44:09.702                             : :Chapter 22
    01:47:27.858                             : :Chapter 23
    01:53:08.865                             : :Chapter 24
    01:56:28.148                             : :Chapter 25
    01:59:40.507                             : :Chapter 26
    02:02:49.445                             : :Chapter 27
    02:05:54.380                             : :Chapter 28
    02:08:43.633                             : :Chapter 29

  • Peso: 10.4 GiB

Sinopsis

Drama bíblico ambientado en el Antiguo Egipto que narra la historia de Moisés, favorito de la familia del faraón, que decide renunciar a su vida de privilegios para conducir a su pueblo, los hebreos esclavizados en Egipto, hacia la libertad.

Ficha técnica

Video trailer de la película

Enlaces de descarga

Rip de Bluray

Descargar Los diez mandamientos (1956) [Parte 1] Full 1080p Latino




Aportes de DPeliculasHDmega la pass es:dpeliculashdmega.org Aportes de CinemaniaHD la pass es:cinemaniahdd.com

Películas relacionadas

  • Coisa Mais Linda (2019) Temporada 1 NF 1080p Latino

    2019
    Coisa Mais Linda (2019) Temporada 1 NF 1080p Latino

    5.0 0h 45m 2019

    Una ama de casa de la década de 1950 va a Río de Janeiro para reunirse con su esposo, solo para enterarse...

    Director: Heather Roth

    Género: Drama

    Actores: Thaila Ayala

  • Lost Serie Completa 1,2,3,4,5 y 6 NF WEB-DL 1080p Latino

    2004
    Lost Serie Completa 1,2,3,4,5 y 6 NF WEB-DL 1080p Latino

    0.0 0h 45m 2004

    'Lost' en su versión original, 'Perdidos' en su versión española, es una serie creada por J. J. Abrams...

    Director: Jeffrey Lieber

    Género: Action & Adventure

    Actores: Terry O'Quinn

  • El hotel gran Budapest (2014) Full HD1080p Latino

    2014
    El hotel gran Budapest (2014) Full HD1080p Latino

    0.0 1h 39m 2014

    El Sr. Gustave H., un legendario conserje de un famoso hotel europeo de entreguerras, entabla amistad...

    Director: Wes Anderson

    Género: Comedia

    Actores: Wolfram Nielacny

  • FBI (2018) Temporada 1 1080p WEB-DL Latino

    2018
    FBI (2018) Temporada 1 1080p WEB-DL Latino

    0.0 0h 43m 2018

    Serie de TV (2018-). Drama vertiginoso sobre el funcionamiento interno de la oficina de Nueva York del...

    Director: Dick Wolf

    Género: Crimen

    Actores: Zeeko Zaki

Comentarios 0