Liga de la Justicia (2017) HD 1080p Latino

1.245 vistas
1 estrella2 estrellas3 estrellas4 estrellas5 estrellas (3 votos, promedio: 4,33 de 5)
Cargando…

Información de Liga de la Justicia (2017) HD 1080p Latino

Datos de la película

  • Calidad: 1080p
  • Audio: Español Latino AC3 5.1 BLURAY - Ingles AC3 5.1 BLURAY
  • Subtitulos: Español Latino SRT - Ingles SRT
  • Resolución: 1920x1080p
  • Formato: MKV
  • Codec: H.264
  • Encoder: CinefiloCool
  • Mediainfo: Clic para Mostrar Datos Ver
  • Justice League (2017) 1080p Latino.mkv
    Format                      : Matroska
    Format version              : Version 4
    File size                   : 3.69 GiB
    Duration                    : 2 h 0 min
    Overall bit rate mode       : Variable
    Overall bit rate            : 4 398 kb/s
    Movie name                  : CinemaniaHDD.Net
    Encoded date                : UTC 2019-01-17 07:43:40 / UTC 2019-01-17T03:32:39Z
    Writing application         : mkvmerge v30.1.0 ('Forever And More') 64-bit
    Writing library             : libebml v1.3.6 + libmatroska v1.4.9 / Lavf57.7.2

    Video
    ID                          : 1
    Format                      : AVC
    Format/Info                 : Advanced Video Codec
    Format profile              : [email protected]
    Format settings             : CABAC / 4 Ref Frames
    Format settings, CABAC      : Yes
    Format settings, ReFrames   : 4 frames
    Codec ID                    : V_MPEG4/ISO/AVC
    Duration                    : 2 h 0 min
    Bit rate mode               : Variable
    Bit rate                    : 3 500 kb/s
    Width                       : 1 920 pixels
    Height                      : 1 080 pixels
    Display aspect ratio        : 16:9
    Frame rate mode             : Constant
    Frame rate                  : 23.976 (24000/1001) FPS
    Color space                 : YUV
    Chroma subsampling          : 4:2:0
    Bit depth                   : 8 bits
    Scan type                   : Progressive
    Bits/(Pixel*Frame)          : 0.070
    Stream size                 : 2.86 GiB (78%)
    Title                       : HD1080p [Bluray]
    Writing library             : x264 core 155 r2901 7d0ff22
    Encoding settings           : cabac=1 / ref=4 / deblock=1:0:0 / analyse=0x3:0x133 / me=umh / subme=9 / psy=1 / psy_rd=1.00:0.00 / mixed_ref=1 / me_range=16 / chroma_me=1 / trellis=2 / 8x8dct=1 / cqm=0 / deadzone=21,11 / fast_pskip=1 / chroma_qp_offset=-2 / threads=34 / lookahead_threads=2 / sliced_threads=0 / nr=0 / decimate=1 / interlaced=0 / bluray_compat=0 / constrained_intra=0 / bframes=3 / b_pyramid=2 / b_adapt=2 / b_bias=0 / direct=3 / weightb=1 / open_gop=0 / weightp=2 / keyint=240 / keyint_min=24 / scenecut=40 / intra_refresh=0 / rc_lookahead=60 / rc=2pass / mbtree=1 / bitrate=3500 / ratetol=1.0 / qcomp=0.60 / qpmin=0 / qpmax=69 / qpstep=4 / cplxblur=20.0 / qblur=0.5 / vbv_maxrate=62500 / vbv_bufsize=78125 / nal_hrd=vbr / filler=0 / ip_ratio=1.40 / aq=1:1.00
    Default                     : Yes
    Forced                      : No
    Color range                 : Limited
    Color primaries             : BT.709
    Transfer characteristics    : BT.709
    Matrix coefficients         : BT.709
    Statistics Tags Issue       : mkvmerge v30.1.0 ('Forever And More') 64-bit 2019-01-17 07:43:40 / mkvmerge v30.1.0 ('Forever And More') 64-bit 2019-01-17 07:43:40 / UTC 2019-01-17T03:32:39Z
    FromStats_BitRate           : 3499570
    FromStats_Duration          : 02:00:02.612000000
    FromStats_FrameCount        : 172690
    FromStats_StreamSize        : 3150755920

    Audio #1
    ID                          : 2
    Format                      : AC-3
    Format/Info                 : Audio Coding 3
    Commercial name             : Dolby Digital
    Codec ID                    : A_AC3
    Duration                    : 2 h 0 min
    Bit rate mode               : Constant
    Bit rate                    : 448 kb/s
    Channel(s)                  : 6 channels
    Channel layout              : L R C LFE Ls Rs
    Sampling rate               : 48.0 kHz
    Frame rate                  : 31.250 FPS (1536 SPF)
    Bit depth                   : 16 bits
    Compression mode            : Lossy
    Delay relative to video     : -5 ms
    Stream size                 : 385 MiB (10%)
    Title                       : AC3_5.1_Bluray_Esp
    Language                    : Spanish
    Service kind                : Complete Main
    Default                     : Yes
    Forced                      : Yes
    Statistics Tags Issue       : mkvmerge v30.1.0 ('Forever And More') 64-bit 2019-01-17 07:43:40 / mkvmerge v30.1.0 ('Forever And More') 64-bit 2019-01-17 07:43:40 / UTC 2019-01-17T03:32:39Z
    FromStats_BitRate           : 448000
    FromStats_Duration          : 02:00:02.624000000
    FromStats_FrameCount        : 225082
    FromStats_StreamSize        : 403346944

    Audio #2
    ID                          : 3
    Format                      : AC-3
    Format/Info                 : Audio Coding 3
    Commercial name             : Dolby Digital
    Codec ID                    : A_AC3
    Duration                    : 2 h 0 min
    Bit rate mode               : Constant
    Bit rate                    : 448 kb/s
    Channel(s)                  : 6 channels
    Channel layout              : L R C LFE Ls Rs
    Sampling rate               : 48.0 kHz
    Frame rate                  : 31.250 FPS (1536 SPF)
    Bit depth                   : 16 bits
    Compression mode            : Lossy
    Stream size                 : 385 MiB (10%)
    Title                       : AC3_5.1_Bluray_Eng
    Language                    : English
    Service kind                : Complete Main
    Default                     : No
    Forced                      : No
    Statistics Tags Issue       : mkvmerge v30.1.0 ('Forever And More') 64-bit 2019-01-17 07:43:40 / mkvmerge v30.1.0 ('Forever And More') 64-bit 2019-01-17 07:43:40 / UTC 2019-01-17T03:32:39Z
    FromStats_BitRate           : 448000
    FromStats_Duration          : 02:00:02.624000000
    FromStats_FrameCount        : 225082
    FromStats_StreamSize        : 403346944

    Text #1
    ID                          : 4
    Format                      : UTF-8
    Codec ID                    : S_TEXT/UTF8
    Codec ID/Info               : UTF-8 Plain Text
    Title                       : Sub_Forzados
    Language                    : Spanish
    Default                     : Yes
    Forced                      : Yes
    Statistics Tags Issue       : mkvmerge v30.1.0 ('Forever And More') 64-bit 2019-01-17 07:43:40 / mkvmerge v30.1.0 ('Forever And More') 64-bit 2019-01-17 07:43:40 / UTC 2019-01-17T03:32:39Z
    FromStats_BitRate           : 0
    FromStats_Duration          : 01:21:13.248000000
    FromStats_FrameCount        : 13
    FromStats_StreamSize        : 340

    Text #2
    ID                          : 5
    Format                      : UTF-8
    Codec ID                    : S_TEXT/UTF8
    Codec ID/Info               : UTF-8 Plain Text
    Title                       : Sub_Esp
    Language                    : Spanish
    Default                     : No
    Forced                      : No
    Statistics Tags Issue       : mkvmerge v30.1.0 ('Forever And More') 64-bit 2019-01-17 07:43:40 / mkvmerge v30.1.0 ('Forever And More') 64-bit 2019-01-17 07:43:40 / UTC 2019-01-17T03:32:39Z
    FromStats_BitRate           : 43
    FromStats_Duration          : 01:58:34.783000000
    FromStats_FrameCount        : 1246
    FromStats_StreamSize        : 38452

    Text #3
    ID                          : 6
    Format                      : UTF-8
    Codec ID                    : S_TEXT/UTF8
    Codec ID/Info               : UTF-8 Plain Text
    Title                       : Sub_Eng
    Language                    : English
    Default                     : No
    Forced                      : No
    Statistics Tags Issue       : mkvmerge v30.1.0 ('Forever And More') 64-bit 2019-01-17 07:43:40 / mkvmerge v30.1.0 ('Forever And More') 64-bit 2019-01-17 07:43:40 / UTC 2019-01-17T03:32:39Z
    FromStats_BitRate           : 42
    FromStats_Duration          : 01:59:04.710000000
    FromStats_FrameCount        : 1249
    FromStats_StreamSize        : 37901

    Menu
    00:00:00.000                : :Chapter 1
    00:10:56.156                : :Chapter 2
    00:19:16.489                : :Chapter 3
    00:30:41.673                : :Chapter 4
    00:40:19.667                : :Chapter 5
    00:49:56.535                : :Chapter 6
    01:01:26.975                : :Chapter 7
    01:09:41.552                : :Chapter 8
    01:19:18.587                : :Chapter 9
    01:30:34.512                : :Chapter 10
    01:40:33.569                : :Chapter 11
    01:48:43.058                : :Chapter 12

  • Peso: 3.69 GiB

Sinopsis

Descargar Liga de la Justicia (2017) HD 1080p Latino, Mega, Google Drive, Torrent. Motivado por la fe que había recuperado en la humanidad e inspirado por la acción altruista de Superman, Bruce Wayne recluta la ayuda de su nueva aliada, Diana Prince, para enfrentarse a un enemigo aún mayor. Juntos, Batman y Wonder Woman se mueven rápidamente para intentar encontrar y reclutar un equipo de metahumanos que combata esta nueva amenaza. El problema es que a pesar de la formación de esta liga de héroes sin precedentes (Batman, Wonder Woman, Aquaman, Cyborg y Flash) puede que sea demasiado tarde para salvar el planeta de una amenaza de proporciones catastróficas.

Ficha técnica

Video trailer de la película

Enlaces de descarga

Rip de Bluray

Descargar Liga de la Justicia (2017) HD 1080p Latino




Aportes de DPeliculasHDmega la pass es:dpeliculashdmega.org Aportes de CinemaniaHD la pass es:cinemaniahdd.com
Etiquetado en :

Películas relacionadas

  • WiFi Ralph (2018) 4K UHD HDR Latino

    2018
    WiFi Ralph (2018) 4K UHD HDR Latino

    0.0 1h 52m 2018

    Descargar WiFi Ralph (2018) 4K UHD HDR Latino, Mega, Google Drive. Ralph sale de los recreativos y......

    Director: Rich Moore

    Género: 4K HDR

    Actores: Wayne Sermon

  • Bumbeblee (2018) Web-DL 4K HDR 2160p Latino

    2018
    Bumbeblee (2018) Web-DL 4K HDR 2160p Latino

    0.0 1h 54m 2018

    Sexta entrega de la saga 'Transformers', esta vez centrada en el "hermano pequeño" de los Autobots,...

    Director: Travis Knight

    Género: Acción

    Actores: Yianni Apostolopolous

  • Bumbeblee (2018) Web-DL 4K UHD 2160p Latino

    2018
    Bumbeblee (2018) Web-DL 4K UHD 2160p Latino

    0.0 1h 54m 2018

    Sexta entrega de la saga 'Transformers', esta vez centrada en el "hermano pequeño" de los Autobots,...

    Director: Travis Knight

    Género: Acción

    Actores: Yianni Apostolopolous

  • Aquaman (2018) 3D OU Full HD 1080p Latino

    2018
    Aquaman (2018) 3D OU Full HD 1080p Latino

    5.0 2h 24m 2018

    Un icono durante más de 70 años, Aquaman (Jason Momoa) es el Rey de los Siete Mares. Este reacio gobernante...

    Director: James Wan

    Género: 3D Half OU

    Actores: Yahya Abdul-Mateen II

  • Bumblebee (2018) AMZN WEB-DL 1080p Latino

    2018
    Bumblebee (2018) AMZN WEB-DL 1080p Latino

    3.3 1h 54m 2018

    Sexta entrega de la saga 'Transformers', esta vez centrada en el "hermano pequeño" de los Autobots,...

    Director: Travis Knight

    Género: Acción

    Actores: Yianni Apostolopolous

Comentarios 0