×

¿Problemas para descargar con Mozilla, EDGE? Deshabilita la opción "Abrir vinculos en una pestaña nueva" tal como lo muestra ésta imagen.

Les Misérables (2012) REMUX 1080p SUB – CMHDD

351 vistas

Información de Les Misérables (2012) REMUX 1080p SUB – CMHDD

Datos de la película

  • Calidad: Full 1080p
  • Audio: Ingles DTS 5.1 BLURAY
  • Subtitulos: Español Latino PGS
  • Resolución: 1920x1080p
  • Formato: MKV
  • Codec: H.264
  • Encoder: Dracarys
  • Mediainfo: Clic para Mostrar Datos Ver
  • Format                      : Matroska
    Format version              : Version 4
    File size                   : 31.7 GiB
    Duration                    : 2 h 37 min
    Overall bit rate mode       : Variable
    Overall bit rate            : 28.7 Mb/s
    Movie name                  : Les Misérables (2012) REMUX 1080p SUB - CMHDD
    Encoded date                : UTC 2022-02-21 02:06:18
    Writing application         : mkvmerge v17.0.0 ('Be Ur Friend') 64-bit
    Writing library             : libebml v1.3.5 + libmatroska v1.4.8

    Video
    ID                          : 1
    Format                      : AVC
    Format/Info                 : Advanced Video Codec
    Format profile              : High@L4.1
    Format settings             : CABAC / 4 Ref Frames
    Format settings, CABAC      : Yes
    Format settings, Reference  : 4 frames
    Format settings, GOP        : M=3, N=12
    Codec ID                    : V_MPEG4/ISO/AVC
    Duration                    : 2 h 37 min
    Bit rate mode               : Variable
    Bit rate                    : 23.2 Mb/s
    Maximum bit rate            : 35.0 Mb/s
    Width                       : 1 920 pixels
    Height                      : 1 080 pixels
    Display aspect ratio        : 16:9
    Frame rate mode             : Constant
    Frame rate                  : 23.976 (24000/1001) FPS
    Color space                 : YUV
    Chroma subsampling          : 4:2:0
    Bit depth                   : 8 bits
    Scan type                   : Progressive
    Bits/(Pixel*Frame)          : 0.466
    Stream size                 : 25.6 GiB (81%)
    Default                     : Yes
    Forced                      : No

    Audio #1
    ID                          : 2
    Format                      : DTS XLL
    Format/Info                 : Digital Theater Systems
    Commercial name             : DTS-HD Master Audio
    Codec ID                    : A_DTS
    Duration                    : 2 h 37 min
    Bit rate mode               : Variable
    Bit rate                    : 4 797 kb/s
    Channel(s)                  : 8 channels
    Channel layout              : C L R LFE Lb Rb Lss Rss
    Sampling rate               : 48.0 kHz
    Frame rate                  : 93.750 FPS (512 SPF)
    Bit depth                   : 24 bits
    Compression mode            : Lossless
    Stream size                 : 5.29 GiB (17%)
    Language                    : English
    Default                     : Yes
    Forced                      : No

    Audio #2
    ID                          : 3
    Format                      : DTS
    Format/Info                 : Digital Theater Systems
    Codec ID                    : A_DTS
    Duration                    : 2 h 37 min
    Bit rate mode               : Constant
    Bit rate                    : 768 kb/s
    Channel(s)                  : 6 channels
    Channel layout              : C L R Ls Rs LFE
    Sampling rate               : 48.0 kHz
    Frame rate                  : 93.750 FPS (512 SPF)
    Bit depth                   : 24 bits
    Compression mode            : Lossy
    Stream size                 : 867 MiB (3%)
    Language                    : English
    Default                     : No
    Forced                      : No

    Text
    ID                          : 4
    Format                      : PGS
    Muxing mode                 : zlib
    Codec ID                    : S_HDMV/PGS
    Codec ID/Info               : Picture based subtitle format used on BDs/HD-DVDs
    Duration                    : 2 h 28 min
    Bit rate                    : 34.9 kb/s
    Count of elements           : 3678
    Stream size                 : 37.1 MiB (0%)
    Language                    : Spanish
    Default                     : Yes
    Forced                      : No

    Menu
    00:00:00.000                : en:Chapter 1
    00:07:22.817                : en:Chapter 2
    00:14:31.996                : en:Chapter 3
    00:22:22.966                : en:Chapter 4
    00:31:52.619                : en:Chapter 5
    00:40:13.661                : en:Chapter 6
    00:45:14.294                : en:Chapter 7
    00:52:43.493                : en:Chapter 8
    01:00:40.845                : en:Chapter 9
    01:06:41.122                : en:Chapter 10
    01:15:51.088                : en:Chapter 11
    01:20:21.650                : en:Chapter 12
    01:27:04.344                : en:Chapter 13
    01:35:34.729                : en:Chapter 14
    01:42:10.290                : en:Chapter 15
    01:52:20.859                : en:Chapter 16
    02:03:01.082                : en:Chapter 17
    02:10:09.343                : en:Chapter 18
    02:21:18.178                : en:Chapter 19
    02:29:41.347                : en:Chapter 20

  • Peso: 31.7 GiB

Sinopsis

Jean Valjean es enviado a prisión tras robar un trozo de pan con el que pretendía alimentar a sus sobrinos y a su hermana viuda. Adaptación del musical del mismo título que, a su vez, se basa en la obra de Victor Hugo «Los miserables»..

Ficha técnica

Video trailer de la película

Enlaces de descarga

Rip de Bluray

Descargar Les Misérables (2012) REMUX 1080p SUB – CMHDD


Aportes de DPeliculasHDmega la pass es:dpeliculashdmega.org Aportes de CinemaniaHD la pass es:cinemaniahdd.com
Guardado en : Drama , Historia

Películas relacionadas

  • El discurso del Rey (2010) 1080p Latino

    El discurso del Rey (2010) 1080p Latino

    2010
    El discurso del Rey (2010) 1080p Latino

    1h 58m 2010

    Descargar El discurso del Rey (2010) 1080p Latino. El duque de York se convirtió en rey de Gran Bretaña...

    Director: Tom Hooper

    Género: Drama

    Actores: Tony Earnshaw

  • El discurso del Rey (2010) Full HD 1080p Latino

    El discurso del Rey (2010) Full HD 1080p Latino

    2010
    El discurso del Rey (2010) Full HD 1080p Latino

    1h 58m 2010

    Descargar El discurso del Rey (2010) Full HD 1080p Latino. El duque de York se convirtió en rey de Gran...

    Director: Tom Hooper

    Género: Drama

    Actores: Tony Earnshaw

  • El discurso del Rey (2010) REMUX 1080p Latino

    El discurso del Rey (2010) REMUX 1080p Latino

    2010
    El discurso del Rey (2010) REMUX 1080p Latino

    1h 58m 2010

    Descargar El discurso del Rey (2010) REMUX 1080p Latino. El duque de York se convirtió en rey de Gran...

    Director: Tom Hooper

    Género: Drama

    Actores: Tony Earnshaw

  • 8 Mile (2002) REMUX 4K HDR Latino – CMHDD

    8 Mile (2002) REMUX 4K HDR Latino – CMHDD

    2002
    8 Mile (2002) REMUX 4K HDR Latino – CMHDD

    1h 50m 2002

    Detroit, 1995. La promesa de potencia industrial se ha transformado en un hervidero de conflictos económicos...

    Director: Michael J. Moore

    Género: Drama

    Actores: Xzibit

descargar Les Misérables (2012) REMUX 1080p SUB – CMHDD Full 1080p 1080p gratis, Les Misérables (2012) REMUX 1080p SUB – CMHDD Full 1080p mega 1 link, Les Misérables (2012) REMUX 1080p SUB – CMHDD Full 1080p pelicula completa, descargar Les Misérables (2012) REMUX 1080p SUB – CMHDD Full 1080p gratis en mega.

Les Misérables (2012) REMUX 1080p SUB – CMHDD pelicula full hd, Les Misérables (2012) REMUX 1080p SUB – CMHDD mega latino, Les Misérables (2012) REMUX 1080p SUB – CMHDD 4k latino, Les Misérables (2012) REMUX 1080p SUB – CMHDD pelicula completa, Les Misérables (2012) REMUX 1080p SUB – CMHDD descargar gratis, descargar Les Misérables (2012) REMUX 1080p SUB – CMHDD pelicula latino, Les Misérables (2012) REMUX 1080p SUB – CMHDD 1 link mega, Les Misérables (2012) REMUX 1080p SUB – CMHDD 1 link google drive, Les Misérables (2012) REMUX 1080p SUB – CMHDD hd 1080p latino.
Comentarios 0