DC’S Legends of Tomorrow (2018) Temporada 04 Web-DL 1080p Latino

3.462 vistas
1 estrella2 estrellas3 estrellas4 estrellas5 estrellas (9 votos, promedio: 4,56 de 5)
Cargando…

Información de DC’S Legends of Tomorrow (2018) Temporada 04 Web-DL 1080p Latino

Datos de la película

  • Calidad: WEBDL
  • Audio: Español Latino AC3 2.0 Capturado - Ingles AC3 5.1 WEBDL
  • Subtitulos: Español Latino SRT
  • Resolución: 1920x1080p
  • Formato: MKV
  • Codec: H.264
  • Encoder: CinefiloCool
  • Mediainfo: Clic para Mostrar Datos Ver
  • DC's LOT S04E09 NF Web-DL 1080p Latino.mkv
    Format                      : Matroska
    Format version              : Version 4
    File size                   : 1.96 GiB
    Duration                    : 42 min 1 s
    Overall bit rate mode       : Variable
    Overall bit rate            : 6 691 kb/s
    Movie name                  : CinemaniaHDD.Net
    Encoded date                : UTC 2019-04-17 04:15:25
    Writing application         : mkvmerge v30.1.0 ('Forever And More') 64-bit
    Writing library             : libebml v1.3.6 + libmatroska v1.4.9

    Video
    ID                          : 1
    Format                      : AVC
    Format/Info                 : Advanced Video Codec
    Format profile              : [email protected]
    Format settings             : CABAC / 3 Ref Frames
    Format settings, CABAC      : Yes
    Format settings, ReFrames   : 3 frames
    Codec ID                    : V_MPEG4/ISO/AVC
    Duration                    : 42 min 0 s
    Bit rate mode               : Variable
    Bit rate                    : 5 800 kb/s
    Maximum bit rate            : 8 700 kb/s
    Width                       : 1 920 pixels
    Height                      : 1 080 pixels
    Display aspect ratio        : 16:9
    Frame rate mode             : Constant
    Frame rate                  : 23.976 (24000/1001) FPS
    Color space                 : YUV
    Chroma subsampling          : 4:2:0
    Bit depth                   : 8 bits
    Scan type                   : Progressive
    Bits/(Pixel*Frame)          : 0.117
    Stream size                 : 1.70 GiB (87%)
    Title                       : HD1080p [NF]
    Writing library             : x264 core 148 r2715 7e75228
    Encoding settings           : cabac=1 / ref=3 / deblock=1:0:0 / analyse=0x1:0x111 / me=umh / subme=10 / psy=1 / psy_rd=1.00:0.00 / mixed_ref=1 / me_range=24 / chroma_me=1 / trellis=2 / 8x8dct=0 / cqm=0 / deadzone=21,11 / fast_pskip=1 / chroma_qp_offset=-2 / threads=8 / lookahead_threads=1 / sliced_threads=0 / nr=0 / decimate=1 / interlaced=0 / bluray_compat=0 / stitchable=1 / constrained_intra=0 / bframes=2 / b_pyramid=0 / b_adapt=2 / b_bias=0 / direct=3 / weightb=1 / open_gop=0 / weightp=2 / keyint=48 / keyint_min=25 / scenecut=0 / intra_refresh=0 / rc_lookahead=48 / rc=2pass / mbtree=1 / bitrate=5800 / ratetol=1.0 / qcomp=0.50 / qpmin=6 / qpmax=51 / qpstep=4 / cplxblur=20.0 / qblur=0.5 / vbv_maxrate=8700 / vbv_bufsize=11600 / nal_hrd=vbr / filler=0 / ip_ratio=1.40 / aq=1:1.00
    Default                     : Yes
    Forced                      : No

    Audio #1
    ID                          : 2
    Format                      : AC-3
    Format/Info                 : Audio Coding 3
    Commercial name             : Dolby Digital
    Codec ID                    : A_AC3
    Duration                    : 42 min 1 s
    Bit rate mode               : Constant
    Bit rate                    : 256 kb/s
    Channel(s)                  : 2 channels
    Channel layout              : L R
    Sampling rate               : 48.0 kHz
    Frame rate                  : 31.250 FPS (1536 SPF)
    Bit depth                   : 16 bits
    Compression mode            : Lossy
    Stream size                 : 76.9 MiB (4%)
    Title                       : AC3_TV_Esp
    Language                    : Spanish
    Service kind                : Complete Main
    Default                     : Yes
    Forced                      : Yes

    Audio #2
    ID                          : 3
    Format                      : E-AC-3
    Format/Info                 : Enhanced AC-3
    Commercial name             : Dolby Digital Plus
    Codec ID                    : A_EAC3
    Duration                    : 42 min 1 s
    Bit rate mode               : Constant
    Bit rate                    : 640 kb/s
    Channel(s)                  : 6 channels
    Channel layout              : L R C LFE Ls Rs
    Sampling rate               : 48.0 kHz
    Frame rate                  : 31.250 FPS (1536 SPF)
    Compression mode            : Lossy
    Stream size                 : 192 MiB (10%)
    Title                       : E-AC3_5.1_NF_Eng
    Language                    : English
    Service kind                : Complete Main
    Default                     : No
    Forced                      : No

    Text #1
    ID                          : 4
    Format                      : UTF-8
    Codec ID                    : S_TEXT/UTF8
    Codec ID/Info               : UTF-8 Plain Text
    Duration                    : 41 min 25 s
    Bit rate                    : 82 b/s
    Count of elements           : 713
    Stream size                 : 25.0 KiB (0%)
    Title                       : Sub_Esp
    Language                    : Spanish
    Default                     : No
    Forced                      : No

    Text #2
    ID                          : 5
    Format                      : UTF-8
    Codec ID                    : S_TEXT/UTF8
    Codec ID/Info               : UTF-8 Plain Text
    Duration                    : 41 min 17 s
    Bit rate                    : 77 b/s
    Count of elements           : 685
    Stream size                 : 23.3 KiB (0%)
    Title                       : Sub_Eng
    Language                    : English
    Default                     : No
    Forced                      : No

  • Peso: 1.24 GiB Aprox. c/u.

Sinopsis

Descargar DC’S Legends of Tomorrow (2018) Temporada 04 Web-DL 1080p Subtitulado; Mega, Google Drive. Después de derrotar al demonio Mallus arrollándolo hasta la muerte con un animal de peluche gigante llamado Beebo, las Leyendas están listas para descansar. Sara (Caity Lotz) y su equipo se unen a Ava Sharpe (Jes Macallan) y al Buró del Tiempo para ayudar a arreglar los últimos anacronismos restantes. El trabajo parece bastante sencillo hasta que llega Constantine (Matt Ryan) para informarles que, al resolver un problema importante, han creado otro mucho más grande. Cuando las Leyendas dejan que el tiempo se desmorone para liberar y vencer a Mallus, la barrera entre los mundos se ablanda. La historia ahora está infectada con “Fugitivos”, criaturas mágicas de mitos, cuentos de hadas y leyendas. Habiendo sido expulsados ​​a lo largo del tiempo por personas como Constantine, estos Fugitivos ahora están regresando en masa a nuestro mundo y haciendo un verdadero desastre. Como el Buró del Tiempo desconfía y está mal equipado para lidiar con la magia, los Leyendas deben formar equipo con el demonólogo favorito de todos para volver a encarrilar la historia. A Sara y Constantine se les unen el compasivo inventor Ray Palmer (Brandon Routh), el ex-convicto Mick Rory (Dominic Purcell), la rebelde portadora de tótems Zari (Tala Ashe) y el desconsolado historiador convertido en superhéroe Nate (Nick Zano) quienes se propusieron salvar al mundo y su legado. ¡Para las Leyendas, es diversión corriente viajar en el tiempo a través de eventos históricos y encontrarse a figuras famosas con un toque adicional de locura mágica!

Capitulo 09 Agregado en Español Latino
Audio Latino: CinefiloCool

 

Ficha técnica

Video trailer de la película

Enlaces de descarga

Rip de Bluray

Descargar DC’S Legends of Tomorrow (2018) Temporada 04 Web-DL 1080p Latino




Aportes de DPeliculasHDmega la pass es:dpeliculashdmega.org Aportes de CinemaniaHD la pass es:cinemaniahdd.com

Películas relacionadas

Comentarios 0