La suerte de los Logan (2017) Full 1080p Latino

1.789 vistas
1 estrella2 estrellas3 estrellas4 estrellas5 estrellas (Ninguna valoración todavía)
Cargando…

Información de La suerte de los Logan (2017) Full 1080p Latino

Datos de la película

  • Calidad: Full 1080p
  • Audio: Español Latino AC3 5.1 DVD - Ingles DTS 5.1 BLURAY
  • Subtitulos: Español Latino PGS - Ingles PGS
  • Resolución: 1920X1080
  • Formato: MKV
  • Codec: H.264
  • Encoder: Dpelis
  • Mediainfo: Clic para Mostrar Datos Ver
  • Format                                   : Matroska
    Format version                           : Version 4 / Version 2
    File size                                : 4.53 GiB
    Duration                                 : 1 h 59 min
    Overall bit rate                         : 5 451 kb/s
    Movie name                               : dpeliculashdmega,org
    Encoded date                             : UTC 2017-11-28 20:38:55 / UTC 2017-11-20T08:50:14Z
    Writing application                      : mkvmerge v15.0.0 ('Duel with the Devil') 64-bit
    Writing library                          : libebml v1.3.5 + libmatroska v1.4.5 / Lavf57.7.2

    Video
    ID                                       : 1
    Format                                   : AVC
    Format/Info                              : Advanced Video Codec
    Format profile                           : High@L4.1
    Format settings                          : CABAC / 4 Ref Frames
    Format settings, CABAC                   : Yes
    Format settings, RefFrames               : 4 frames
    Codec ID                                 : V_MPEG4/ISO/AVC
    Duration                                 : 1 h 59 min
    Bit rate                                 : 3 385 kb/s
    Width                                    : 1 920 pixels
    Height                                   : 1 080 pixels
    Display aspect ratio                     : 16:9
    Frame rate mode                          : Constant
    Frame rate                               : 23.976 (24000/1001) FPS
    Color space                              : YUV
    Chroma subsampling                       : 4:2:0
    Bit depth                                : 8 bits
    Scan type                                : Progressive
    Bits/(Pixel*Frame)                       : 0.068
    Stream size                              : 2.82 GiB (62%)
    Title                                    : La suerte de los Logan (2017) Full 1080p Latino
    Writing library                          : x264 core 148 r2708 86b7198
    Encoding settings                        : cabac=1 / ref=4 / deblock=1:0:0 / analyse=0x3:0x133 / me=esa / subme=10 / psy=1 / psy_rd=1.00:0.00 / mixed_ref=1 / me_range=24 / chroma_me=1 / trellis=2 / 8x8dct=1 / cqm=0 / deadzone=21,11 / fast_pskip=1 / chroma_qp_offset=-2 / threads=34 / lookahead_threads=5 / sliced_threads=0 / nr=0 / decimate=1 / interlaced=0 / bluray_compat=0 / constrained_intra=0 / bframes=8 / b_pyramid=2 / b_adapt=2 / b_bias=0 / direct=3 / weightb=1 / open_gop=0 / weightp=2 / keyint=240 / keyint_min=24 / scenecut=40 / intra_refresh=0 / rc_lookahead=60 / rc=crf / mbtree=1 / crf=20.0 / qcomp=0.60 / qpmin=0 / qpmax=69 / qpstep=4 / vbv_maxrate=62500 / vbv_bufsize=78125 / crf_max=0.0 / nal_hrd=none / filler=0 / ip_ratio=1.40 / aq=1:1.00
    Language                                 : English
    Default                                  : Yes
    Forced                                   : No
    Color range                              : Limited
    Color primaries                          : BT.709
    Transfer characteristics                 : BT.709
    Matrix coefficients                      : BT.709
    Statistics Tags Issue                    : mkvmerge v15.0.0 ('Duel with the Devil') 64-bit 2017-11-28 20:38:55 / mkvmerge v15.0.0 ('Duel with the Devil') 64-bit 2017-11-28 20:38:55 / UTC 2017-11-20T08:50:14Z
    FromStats_BitRate                        : 3467138
    FromStats_Duration                       : 01:59:03.178000000
    FromStats_FrameCount                     : 171265
    FromStats_StreamSize                     : 3095798779

    Audio #1
    ID                                       : 2
    Format                                   : AC-3
    Format/Info                              : Audio Coding 3
    Format settings, Endianness              : Big
    Codec ID                                 : A_AC3
    Duration                                 : 1 h 59 min
    Bit rate mode                            : Constant
    Bit rate                                 : 448 kb/s
    Channel(s)                               : 6 channels
    Channel positions                        : Front: L C R, Side: L R, LFE
    Sampling rate                            : 48.0 kHz
    Frame rate                               : 31.250 FPS (1536 SPF)
    Bit depth                                : 16 bits
    Compression mode                         : Lossy
    Stream size                              : 381 MiB (8%)
    Title                                    : Latino-AC3
    Language                                 : Spanish
    Service kind                             : Complete Main
    Default                                  : Yes
    Forced                                   : No
    Statistics Tags Issue                    : mkvmerge v15.0.0 ('Duel with the Devil') 64-bit 2017-11-28 20:38:55 / mkvmerge v15.0.0 ('Duel with the Devil') 64-bit 2017-11-28 20:38:55 / UTC 2017-11-20T08:50:14Z
    FromStats_BitRate                        : 448000
    FromStats_Duration                       : 01:59:02.656000000
    FromStats_FrameCount                     : 223208
    FromStats_StreamSize                     : 399988736

    Audio #2
    ID                                       : 3
    Format                                   : DTS
    Format/Info                              : Digital Theater Systems
    Mode                                     : 16
    Format settings, Endianness              : Big
    Codec ID                                 : A_DTS
    Duration                                 : 1 h 59 min
    Bit rate mode                            : Constant
    Bit rate                                 : 1 509 kb/s
    Channel(s)                               : 6 channels
    Channel positions                        : Front: L C R, Side: L R, LFE
    Sampling rate                            : 48.0 kHz
    Frame rate                               : 93.750 FPS (512 SPF)
    Bit depth                                : 24 bits
    Compression mode                         : Lossy
    Stream size                              : 1.25 GiB (28%)
    Title                                    : Ingles-DTS
    Language                                 : English
    Default                                  : No
    Forced                                   : No
    Statistics Tags Issue                    : mkvmerge v15.0.0 ('Duel with the Devil') 64-bit 2017-11-28 20:38:55 / mkvmerge v15.0.0 ('Duel with the Devil') 64-bit 2017-11-28 20:38:55 / UTC 2017-11-20T08:50:14Z
    FromStats_BitRate                        : 1508999
    FromStats_Duration                       : 01:59:03.179000000
    FromStats_FrameCount                     : 669673
    FromStats_StreamSize                     : 1347382076

    Text #1
    ID                                       : 4
    Format                                   : PGS
    Muxing mode                              : zlib
    Codec ID                                 : S_HDMV/PGS
    Codec ID/Info                            : Picture based subtitle format used on BDs/HD-DVDs
    Language                                 : English
    Default                                  : No
    Forced                                   : No
    Statistics Tags Issue                    : mkvmerge v15.0.0 ('Duel with the Devil') 64-bit 2017-11-28 20:38:55 / mkvmerge v15.0.0 ('Duel with the Devil') 64-bit 2017-11-28 20:38:55 / UTC 2017-11-20T08:50:14Z
    FromStats_BitRate                        : 46623
    FromStats_Duration                       : 01:57:49.771000000
    FromStats_FrameCount                     : 3499
    FromStats_StreamSize                     : 41202270

    Text #2
    ID                                       : 5
    Format                                   : PGS
    Muxing mode                              : zlib
    Codec ID                                 : S_HDMV/PGS
    Codec ID/Info                            : Picture based subtitle format used on BDs/HD-DVDs
    Language                                 : Spanish
    Default                                  : No
    Forced                                   : No
    Statistics Tags Issue                    : mkvmerge v15.0.0 ('Duel with the Devil') 64-bit 2017-11-28 20:38:55 / mkvmerge v15.0.0 ('Duel with the Devil') 64-bit 2017-11-28 20:38:55 / UTC 2017-11-20T08:50:14Z
    FromStats_BitRate                        : 36035
    FromStats_Duration                       : 01:58:04.411000000
    FromStats_FrameCount                     : 2676
    FromStats_StreamSize                     : 31910961

    Menu
    00:00:00.000                             : :Chapter 1
    00:05:41.800                             : :Chapter 2
    00:07:33.203                             : :Chapter 3
    00:10:40.932                             : :Chapter 4
    00:16:24.066                             : :Chapter 5
    00:21:23.282                             : :Chapter 6
    00:29:08.747                             : :Chapter 7
    00:36:03.703                             : :Chapter 8
    00:41:49.424                             : :Chapter 9
    00:47:11.078                             : :Chapter 10
    00:50:08.881                             : :Chapter 11
    00:54:40.527                             : :Chapter 12
    00:57:27.152                             : :Chapter 13
    00:59:16.470                             : :Chapter 14
    01:04:37.290                             : :Chapter 15
    01:07:27.877                             : :Chapter 16
    01:12:13.037                             : :Chapter 17
    01:17:50.249                             : :Chapter 18
    01:19:20.422                             : :Chapter 19
    01:24:02.955                             : :Chapter 20
    01:28:33.099                             : :Chapter 21
    01:32:41.514                             : :Chapter 22
    01:42:27.516                             : :Chapter 23
    01:46:07.653                             : :Chapter 24
    01:50:50.936                             : :Chapter 25
    01:54:55.263                             : :Chapter 26

  • Peso: 4.53 GiB

Sinopsis

Intentando revertir una maldición familiar, tres hermanos, Jimmy (Channing Tatum), Mellie (Riley Keough) y Clyde Logan (Adam Driver), intentan llevar a cabo un gran atraco durante una importante carrera de coches en Concord, Carolina del Norte.

Ficha técnica

Video trailer de la película

Enlaces de descarga

Rip de Bluray

Descargar La suerte de los Logan (2017) Full 1080p Latino




Aportes de DPeliculasHDmega la pass es:dpeliculashdmega.org Aportes de CinemaniaHD la pass es:cinemaniahdd.com

Películas relacionadas

  • El Justiciero 2 (2018) Full 1080p Latino

    2018
    El Justiciero 2 (2018) Full 1080p Latino

    0.0 2h 0m 2018

    Descargar El Justiciero 2 (2018) Full 1080p Latino, Mega, Google Drive. Robert McCall (Denzel Washington)...

    Director: Donald Sparks

    Género: Acción

    Actores: Wesley Pereira

  • Arrow (2018) Temporada 07 AMZN Web-DL 1080p Latino

    2012
    Arrow (2018) Temporada 07 AMZN Web-DL 1080p Latino

    2.7 0h 42m 2012

    Descargar Arrow Temporada 07 AMZN Web-DL 1080p Latino; Mega, Google Drive. No ha habido escasez de llamadas...

    Director: Marc Guggenheim

    Género: Action & Adventure

    Actores: Stephen Amell

  • El Justiciero 2 (2018) 1080p Latino

    2018
    El Justiciero 2 (2018) 1080p Latino

    2.5 2h 0m 2018

    Descargar El Justiciero 2 (2018) 1080p Latino, Mega, Google Drive. Robert McCall (Denzel Washington)...

    Director: Donald Sparks

    Género: Acción

    Actores: Wesley Pereira

Comentarios 2
  • jk2018 - 29 noviembre, 2017

    para cuando tendras listo america assessino en formato psg ya corregido de que se adelanta ..la escenas..gracias

    • Dpelis2 - 29 noviembre, 2017

      recién fue publicada