La propuesta (2009) Full 1080p Latino

1.382 vistas
1 estrella2 estrellas3 estrellas4 estrellas5 estrellas (8 votos, promedio: 4,00 de 5)
Cargando…

Información de La propuesta (2009) Full 1080p Latino

Datos de la película

  • Calidad: Full 1080p
  • Audio: Español Latino AC3 5.1 BLURAY - Ingles DTS 5.1 BLURAY
  • Subtitulos: Español Latino PGS - Ingles PGS
  • Resolución: 1920x1080p
  • Formato: MKV
  • Codec: H.264
  • Encoder: Dracarys
  • Mediainfo: Clic para Mostrar Datos Ver
  • Format                                   : Matroska
    Format version                           : Version 4 / Version 2
    File size                                : 5.66 GiB
    Duration                                 : 1 h 47 min
    Overall bit rate                         : 7 523 kb/s
    Movie name                               : CinemaniaHDD.net
    Encoded date                             : UTC 2018-09-09 21:56:16 / UTC 2018-09-09T05:56:09Z
    Writing application                      : mkvmerge v15.0.0 ('Duel with the Devil') 64-bit
    Writing library                          : libebml v1.3.5 + libmatroska v1.4.5 / Lavf57.7.2

    Video
    ID                                       : 1
    Format                                   : AVC
    Format/Info                              : Advanced Video Codec
    Format profile                           : High@L4.1
    Format settings                          : CABAC / 4 Ref Frames
    Format settings, CABAC                   : Yes
    Format settings, RefFrames               : 4 frames
    Codec ID                                 : V_MPEG4/ISO/AVC
    Duration                                 : 1 h 47 min
    Bit rate                                 : 5 225 kb/s
    Width                                    : 1 920 pixels
    Height                                   : 1 080 pixels
    Display aspect ratio                     : 16:9
    Frame rate mode                          : Constant
    Frame rate                               : 23.976 (24000/1001) FPS
    Color space                              : YUV
    Chroma subsampling                       : 4:2:0
    Bit depth                                : 8 bits
    Scan type                                : Progressive
    Bits/(Pixel*Frame)                       : 0.105
    Stream size                              : 3.93 GiB (69%)
    Title                                    : La propuesta (2009) Full 1080p Latino
    Writing library                          : x264 core 148 r2708 86b7198
    Encoding settings                        : cabac=1 / ref=4 / deblock=1:0:0 / analyse=0x3:0x133 / me=esa / subme=10 / psy=1 / psy_rd=1.00:0.00 / mixed_ref=1 / me_range=24 / chroma_me=1 / trellis=2 / 8x8dct=1 / cqm=0 / deadzone=21,11 / fast_pskip=1 / chroma_qp_offset=-2 / threads=34 / lookahead_threads=5 / sliced_threads=0 / nr=0 / decimate=1 / interlaced=0 / bluray_compat=0 / constrained_intra=0 / bframes=8 / b_pyramid=2 / b_adapt=2 / b_bias=0 / direct=3 / weightb=1 / open_gop=0 / weightp=2 / keyint=240 / keyint_min=24 / scenecut=40 / intra_refresh=0 / rc_lookahead=60 / rc=crf / mbtree=1 / crf=20.0 / qcomp=0.60 / qpmin=0 / qpmax=69 / qpstep=4 / vbv_maxrate=62500 / vbv_bufsize=78125 / crf_max=0.0 / nal_hrd=none / filler=0 / ip_ratio=1.40 / aq=1:1.00
    Language                                 : English
    Default                                  : Yes
    Forced                                   : No
    Color range                              : Limited
    Color primaries                          : BT.709
    Transfer characteristics                 : BT.709
    Matrix coefficients                      : BT.709
    Statistics Tags Issue                    : mkvmerge v15.0.0 ('Duel with the Devil') 64-bit 2018-09-09 21:56:16 / mkvmerge v15.0.0 ('Duel with the Devil') 64-bit 2018-09-09 21:56:16 / UTC 2018-09-09T05:56:09Z
    FromStats_BitRate                        : 5333644
    FromStats_Duration                       : 01:47:47.503000000
    FromStats_FrameCount                     : 155065
    FromStats_StreamSize                     : 4311920485

    Audio #1
    ID                                       : 2
    Format                                   : AC-3
    Format/Info                              : Audio Coding 3
    Format settings, Endianness              : Big
    Codec ID                                 : A_AC3
    Duration                                 : 1 h 47 min
    Bit rate mode                            : Constant
    Bit rate                                 : 640 kb/s
    Channel(s)                               : 6 channels
    Channel positions                        : Front: L C R, Side: L R, LFE
    Sampling rate                            : 48.0 kHz
    Frame rate                               : 31.250 FPS (1536 SPF)
    Bit depth                                : 16 bits
    Compression mode                         : Lossy
    Stream size                              : 493 MiB (9%)
    Language                                 : Spanish
    Service kind                             : Complete Main
    Default                                  : Yes
    Forced                                   : No
    Statistics Tags Issue                    : mkvmerge v15.0.0 ('Duel with the Devil') 64-bit 2018-09-09 21:56:16 / mkvmerge v15.0.0 ('Duel with the Devil') 64-bit 2018-09-09 21:56:16 / UTC 2018-09-09T05:56:09Z
    FromStats_BitRate                        : 640000
    FromStats_Duration                       : 01:47:46.496000000
    FromStats_FrameCount                     : 202078
    FromStats_StreamSize                     : 517319680

    Audio #2
    ID                                       : 3
    Format                                   : DTS
    Format/Info                              : Digital Theater Systems
    Mode                                     : 16
    Format settings, Endianness              : Big
    Codec ID                                 : A_DTS
    Duration                                 : 1 h 47 min
    Bit rate mode                            : Constant
    Bit rate                                 : 1 509 kb/s
    Channel(s)                               : 6 channels
    Channel positions                        : Front: L C R, Side: L R, LFE
    Sampling rate                            : 48.0 kHz
    Frame rate                               : 93.750 FPS (512 SPF)
    Bit depth                                : 24 bits
    Compression mode                         : Lossy
    Stream size                              : 1.14 GiB (20%)
    Language                                 : English
    Default                                  : No
    Forced                                   : No
    Statistics Tags Issue                    : mkvmerge v15.0.0 ('Duel with the Devil') 64-bit 2018-09-09 21:56:16 / mkvmerge v15.0.0 ('Duel with the Devil') 64-bit 2018-09-09 21:56:16 / UTC 2018-09-09T05:56:09Z
    FromStats_BitRate                        : 1508999
    FromStats_Duration                       : 01:47:47.510000000
    FromStats_FrameCount                     : 606329
    FromStats_StreamSize                     : 1219933948

    Text #1
    ID                                       : 4
    Format                                   : PGS
    Muxing mode                              : zlib
    Codec ID                                 : S_HDMV/PGS
    Codec ID/Info                            : Picture based subtitle format used on BDs/HD-DVDs
    Language                                 : English
    Default                                  : No
    Forced                                   : No
    Statistics Tags Issue                    : mkvmerge v15.0.0 ('Duel with the Devil') 64-bit 2018-09-09 21:56:16 / mkvmerge v15.0.0 ('Duel with the Devil') 64-bit 2018-09-09 21:56:16 / UTC 2018-09-09T05:56:09Z
    FromStats_BitRate                        : 40205
    FromStats_Duration                       : 01:45:03.923000000
    FromStats_FrameCount                     : 3188
    FromStats_StreamSize                     : 31681706

    Text #2
    ID                                       : 5
    Format                                   : PGS
    Muxing mode                              : zlib
    Codec ID                                 : S_HDMV/PGS
    Codec ID/Info                            : Picture based subtitle format used on BDs/HD-DVDs
    Title                                    : Forzados
    Language                                 : Spanish
    Default                                  : Yes
    Forced                                   : Yes
    Statistics Tags Issue                    : mkvmerge v15.0.0 ('Duel with the Devil') 64-bit 2018-09-09 21:56:16 / mkvmerge v15.0.0 ('Duel with the Devil') 64-bit 2018-09-09 21:56:16 / UTC 2018-09-09T05:56:09Z
    FromStats_BitRate                        : 472
    FromStats_Duration                       : 01:36:43.178000000
    FromStats_FrameCount                     : 26
    FromStats_StreamSize                     : 342837

    Text #3
    ID                                       : 6
    Format                                   : PGS
    Muxing mode                              : zlib
    Codec ID                                 : S_HDMV/PGS
    Codec ID/Info                            : Picture based subtitle format used on BDs/HD-DVDs
    Language                                 : Spanish
    Default                                  : No
    Forced                                   : No
    Statistics Tags Issue                    : mkvmerge v15.0.0 ('Duel with the Devil') 64-bit 2018-09-09 21:56:16 / mkvmerge v15.0.0 ('Duel with the Devil') 64-bit 2018-09-09 21:56:16 / UTC 2018-09-09T05:56:09Z
    FromStats_BitRate                        : 56657
    FromStats_Duration                       : 01:45:22.906000000
    FromStats_FrameCount                     : 2892
    FromStats_StreamSize                     : 44780034

    Menu
    00:00:00.000                             : :Margaret, Andrew and Bob
    00:08:55.535                             : :The Problem and the Solution
    00:19:23.871                             : :A Promotion and a Proposal
    00:29:32.104                             : :Telling the Family
    00:37:17.402                             : :The Babymaker
    00:47:06.699                             : :Grace's Big Surprise
    00:56:31.138                             : :Singing Each Other to Sleep
    01:06:26.024                             : :Getting Low with Mother Nature
    01:17:55.171                             : :Water Rescue
    01:25:32.544                             : :The Wedding
    01:37:41.105                             : :I'll Take That As a Yes
    01:43:02.426                             : :End Credits

  • Peso: 5.66 GiB

Sinopsis

Margaret (Sandra Bullock) es una poderosa y estricta editora de gran éxito de Nueva York que, por un problema con su visado, de repente se enfrenta a ser deportada a Canadá, su país de origen. Para evitarlo y poder mantener su visa en Estados Unidos, la astuta ejecutiva declara que está comprometida con su joven asistente Andrew (Ryan Reynolds), al que lleva torturando durante años. Andrew acepta participar en la farsa, pero con algunas condiciones. La “pareja” se dirige entonces a Alaska a conocer la peculiar familia de él, y la ejecutiva de ciudad, acostumbrada a tener todo bajo control, se encuentra inmersa en situaciones surrealistas que escapan a cualquier lógica conocida. Con planes de boda en camino y un agente de inmigración tras sus pasos, Margaret y Andrew se comprometen a seguir con el plan previsto pese a las consecuencias.

Ficha técnica

Video trailer de la película

Enlaces de descarga

Rip de Bluray

Descargar La propuesta (2009) Full 1080p Latino




Aportes de DPeliculasHDmega la pass es:dpeliculashdmega.org Aportes de CinemaniaHD la pass es:cinemaniahdd.com

Películas relacionadas

  • Unbroken Path to Redemption (2018) 1080p Latino

    2018
    Unbroken Path to Redemption (2018) 1080p Latino

    0.0 1h 38m 2018

    Zamperini regresa a California donde se casó a regañadientes con Cynthia Applewhite mientras luchaba...

    Director: Harold Cronk

    Género: Drama

    Actores: Will Graham

  • Matar o morir (2018) 1080p Subtitulado

    2018
    Matar o morir (2018) 1080p Subtitulado

    5.0 1h 41m 2018

    Descargar Matar o morir [Peppermint] (2018) 1080p Subtitulado, Mega, Google Drive. LRiley North (Jennifer...

    Director: Pierre Morel

    Género: Acción

    Actores: YaYa Gosselin

  • Ni en tus sueños (2010) Full 1080p Latino

    2010
    Ni en tus sueños (2010) Full 1080p Latino

    0.0 1h 44m 2010

    Descargar Ni en tus sueños (2010) Full 1080p Latino, Mega, Google Drive. Kirk (Jay Baruchel, "Tropic...

    Director: Richard L. Fox

    Género: Comedia

    Actores: Yan Xi

  • Ni en tus sueños (2010) 1080p Latino

    2010
    Ni en tus sueños (2010) 1080p Latino

    0.0 1h 44m 2010

    Descargar Ni en tus sueños (2010) 1080p Latino, Mega, Google Drive. Kirk (Jay Baruchel, "Tropic Thunder")...

    Director: Richard L. Fox

    Género: Comedia

    Actores: Yan Xi

  • La Chica de La Capa Roja (2011) Full 1080p Latino

    2011
    La Chica de La Capa Roja (2011) Full 1080p Latino

    4.7 1h 40m 2011

    Descargar La Chica de La Capa Roja (2011) Full 1080p Latino, Mega, Google Drive. La joven Valerie se...

    Director: Kimi Webber

    Género: Fantasía

    Actores: Virginia Madsen

Comentarios 0