La muerte de Stalin (2017) 1080p Latino

514 vistas
1 estrella2 estrellas3 estrellas4 estrellas5 estrellas (Ninguna valoración todavía)
Cargando…

Información de La muerte de Stalin (2017) 1080p Latino

Datos de la película

  • Calidad: 1080p
  • Audio: Español Latino AC3 5.1 BLURAY - Ingles AC3 5.1 BLURAY
  • Subtitulos: Español Latino SRT - Ingles SRT
  • Resolución: 1920x1040p
  • Formato: MKV
  • Codec: H.264
  • Encoder: CinefiloCool
  • Mediainfo: Clic para Mostrar Datos Ver
  • La muerte de Stalin (2017) 1080p Latino.mkv
    Format                      : Matroska
    Format version              : Version 4 / Version 2
    File size                   : 3.24 GiB
    Duration                    : 1 h 46 min
    Overall bit rate            : 4 356 kb/s
    Movie name                  : CinemaniaHDD.Net
    Encoded date                : UTC 2018-11-22 02:11:56
    Writing application         : mkvmerge v25.0.0 ('Prog Noir') 64-bit
    Writing library             : libebml v1.3.6 + libmatroska v1.4.9

    Video
    ID                          : 1
    Format                      : AVC
    Format/Info                 : Advanced Video Codec
    Format profile              : High@L4.1
    Format settings             : CABAC / 4 Ref Frames
    Format settings, CABAC      : Yes
    Format settings, RefFrames  : 4 frames
    Codec ID                    : V_MPEG4/ISO/AVC
    Duration                    : 1 h 46 min
    Bit rate                    : 3 500 kb/s
    Width                       : 1 920 pixels
    Height                      : 1 040 pixels
    Display aspect ratio        : 1.85:1
    Frame rate mode             : Constant
    Frame rate                  : 24.000 FPS
    Color space                 : YUV
    Chroma subsampling          : 4:2:0
    Bit depth                   : 8 bits
    Scan type                   : Progressive
    Bits/(Pixel*Frame)          : 0.073
    Stream size                 : 2.57 GiB (79%)
    Title                       : HD1080p [Bluray]
    Writing library             : x264 core 155 r2893 b00bcaf
    Encoding settings           : cabac=1 / ref=4 / deblock=1:0:0 / analyse=0x3:0x113 / me=hex / subme=8 / psy=1 / psy_rd=1.00:0.00 / mixed_ref=1 / me_range=16 / chroma_me=1 / trellis=2 / 8x8dct=1 / cqm=0 / deadzone=21,11 / fast_pskip=1 / chroma_qp_offset=-2 / threads=32 / lookahead_threads=5 / sliced_threads=0 / nr=0 / decimate=1 / interlaced=0 / bluray_compat=0 / constrained_intra=0 / bframes=3 / b_pyramid=2 / b_adapt=1 / b_bias=0 / direct=3 / weightb=1 / open_gop=0 / weightp=2 / keyint=240 / keyint_min=24 / scenecut=40 / intra_refresh=0 / rc_lookahead=50 / rc=abr / mbtree=1 / bitrate=3500 / ratetol=1.0 / qcomp=0.60 / qpmin=0 / qpmax=69 / qpstep=4 / vbv_maxrate=62500 / vbv_bufsize=78125 / nal_hrd=none / filler=0 / ip_ratio=1.40 / aq=1:1.00
    Default                     : Yes
    Forced                      : No
    Color range                 : Limited
    Color primaries             : BT.709
    Transfer characteristics    : BT.709
    Matrix coefficients         : BT.709

    Audio #1
    ID                          : 2
    Format                      : AC-3
    Format/Info                 : Audio Coding 3
    Format settings, Endianness : Big
    Codec ID                    : A_AC3
    Duration                    : 1 h 46 min
    Bit rate mode               : Constant
    Bit rate                    : 448 kb/s
    Channel(s)                  : 6 channels
    Channel positions           : Front: L C R, Side: L R, LFE
    Sampling rate               : 48.0 kHz
    Frame rate                  : 31.250 FPS (1536 SPF)
    Bit depth                   : 16 bits
    Compression mode            : Lossy
    Delay relative to video     : -5 ms
    Stream size                 : 341 MiB (10%)
    Title                       : AC3_5.1_Bluray_Esp
    Language                    : Spanish
    Service kind                : Complete Main
    Default                     : Yes
    Forced                      : Yes

    Audio #2
    ID                          : 3
    Format                      : AC-3
    Format/Info                 : Audio Coding 3
    Format settings, Endianness : Big
    Codec ID                    : A_AC3
    Duration                    : 1 h 46 min
    Bit rate mode               : Constant
    Bit rate                    : 448 kb/s
    Channel(s)                  : 6 channels
    Channel positions           : Front: L C R, Side: L R, LFE
    Sampling rate               : 48.0 kHz
    Frame rate                  : 31.250 FPS (1536 SPF)
    Bit depth                   : 16 bits
    Compression mode            : Lossy
    Stream size                 : 342 MiB (10%)
    Title                       : AC3_5.1_Bluray_Eng
    Language                    : English
    Service kind                : Complete Main
    Default                     : No
    Forced                      : No

    Text #1
    ID                          : 4
    Format                      : UTF-8
    Codec ID                    : S_TEXT/UTF8
    Codec ID/Info               : UTF-8 Plain Text
    Duration                    : 1 h 38 min
    Bit rate                    : 1 b/s
    Count of elements           : 32
    Stream size                 : 1.22 KiB (0%)
    Title                       : Sub_Forzados
    Language                    : Spanish
    Default                     : Yes
    Forced                      : Yes

    Text #2
    ID                          : 5
    Format                      : UTF-8
    Codec ID                    : S_TEXT/UTF8
    Codec ID/Info               : UTF-8 Plain Text
    Duration                    : 1 h 38 min
    Bit rate                    : 85 b/s
    Count of elements           : 1918
    Stream size                 : 61.3 KiB (0%)
    Title                       : Sub_Esp
    Language                    : Spanish
    Default                     : No
    Forced                      : No

    Text #3
    ID                          : 6
    Format                      : UTF-8
    Codec ID                    : S_TEXT/UTF8
    Codec ID/Info               : UTF-8 Plain Text
    Duration                    : 1 h 36 min
    Bit rate                    : 85 b/s
    Count of elements           : 1706
    Stream size                 : 60.6 KiB (0%)
    Title                       : Sub_Eng
    Language                    : English
    Default                     : No
    Forced                      : No

    Menu
    00:00:00.000                : :00:00:00.000
    00:06:38.917                : :00:06:38.875
    00:13:02.667                : :00:13:02.583
    00:19:53.208                : :00:19:53.125
    00:29:06.167                : :00:29:06.125
    00:33:58.333                : :00:33:58.250
    00:40:22.500                : :00:40:22.417
    00:45:28.042                : :00:45:28.000
    00:50:35.000                : :00:50:35.000
    00:58:40.792                : :00:58:40.750
    01:03:23.750                : :01:03:23.667
    01:12:31.792                : :01:12:31.750
    01:17:43.000                : :01:17:42.917
    01:24:49.125                : :01:24:49.000
    01:33:33.750                : :01:33:33.708
    01:39:25.625                : :01:39:25.583

  • Peso: 3.24 GiB

Sinopsis

Descargar La muerte de Stalin (2017) 1080p Latino, Mega, Google Drive. La noche del 2 de marzo de 1953 murió un hombre. Ese hombre es Josef Stalin, dictador, tirano, carnicero y Secretario General de la URSS. Y si juegas tus cartas bien, el puesto ahora puede ser tuyo. Una sátira sobre los días previos al funeral del padre de la nación. Dos jornadas de duras peleas por el poder absoluto a través de manipulaciones, lujurias y traiciones.

Ficha técnica

Video trailer de la película

Enlaces de descarga

Rip de Bluray

Descargar La muerte de Stalin (2017) 1080p Latino




Aportes de DPeliculasHDmega la pass es:dpeliculashdmega.org Aportes de CinemaniaHD la pass es:cinemaniahdd.com
Guardado en : Comedia , HD 1080p , Historia

Películas relacionadas

  • Godzilla (2014) 1080p Latino

    2014
    Godzilla (2014) 1080p Latino

    0.0 2h 3m 2014

    Descargar Godzilla (2014) 1080p Latino, Mega, Google Drive, Torrent. Gareth Edwards dirige este "reboot",...

    Director: Jessica Clothier

    Género: Acción

    Actores: Yuki Morita

  • Un pequeño favor (2018) 1080p Latino

    2018
    Un pequeño favor (2018) 1080p Latino

    5.0 1h 57m 2018

    Un pequeño favor  torrnet Stephanie es una joven madre bloguera de una ciudad pequeña cuya mejor amiga,...

    Director: Paul Feig

    Género: Crimen

    Actores: Zach Smadu

  • Amanecer Oscuro (2018) 1080p Latino

    2018
    Amanecer Oscuro (2018) 1080p Latino

    0.0 1h 28m 2018

    Descargar Amanecer Oscuro (2018) 1080p Latino, Mega, Google Drive, Torrent. En un futuro post-apocalíptico,...

    Director: James Franco

    Género: Ciencia ficción

    Actores: Wilmer Calderon

  • Escuela Nocturnas (2018) WEBDL 1080p Latino

    2018
    Escuela Nocturnas (2018) WEBDL 1080p Latino

    3.7 1h 51m 2018

    A Teddy Walker (Kevin Hart) le acaban de decir que tiene dislexia, además de otras discapacidades de...

    Director: Malcolm D. Lee

    Género: Comedia

    Actores: Yvonne Orji

Comentarios 0