La máscara (1994) Full 1080p Latino

3.696 vistas
1 estrella2 estrellas3 estrellas4 estrellas5 estrellas (5 votos, promedio: 5,00 de 5)
Cargando…

Información de La máscara (1994) Full 1080p Latino

Datos de la película

  • Calidad: Full 1080p
  • Audio: Se especifica abajo de la Sinopsis
  • Subtitulos: Español Latino PGS - Ingles PGS
  • Resolución: 1920X1080p
  • Formato: MKV
  • Codec: H.264
  • Encoder: Dracarys
  • Mediainfo: Clic para Mostrar Datos Ver
  • Format                                   : Matroska
    Format version                           : Version 4 / Version 2
    File size                                : 4.30 GiB
    Duration                                 : 1 h 41 min
    Overall bit rate                         : 6 089 kb/s
    Movie name                               : CinemaniaHDD.com
    Encoded date                             : UTC 2018-02-09 04:20:51 / UTC 2018-02-07T08:13:13Z
    Writing application                      : mkvmerge v15.0.0 ('Duel with the Devil') 64-bit
    Writing library                          : libebml v1.3.5 + libmatroska v1.4.5 / Lavf57.7.2

    Video
    ID                                       : 1
    Format                                   : AVC
    Format/Info                              : Advanced Video Codec
    Format profile                           : [email protected]
    Format settings                          : CABAC / 4 Ref Frames
    Format settings, CABAC                   : Yes
    Format settings, RefFrames               : 4 frames
    Codec ID                                 : V_MPEG4/ISO/AVC
    Duration                                 : 1 h 41 min
    Bit rate                                 : 4 880 kb/s
    Width                                    : 1 920 pixels
    Height                                   : 1 080 pixels
    Display aspect ratio                     : 16:9
    Frame rate mode                          : Constant
    Frame rate                               : 23.976 (24000/1001) FPS
    Color space                              : YUV
    Chroma subsampling                       : 4:2:0
    Bit depth                                : 8 bits
    Scan type                                : Progressive
    Bits/(Pixel*Frame)                       : 0.098
    Stream size                              : 3.45 GiB (80%)
    Title                                    : La máscara (1994) Full 1080p Latino
    Writing library                          : x264 core 148 r2708 86b7198
    Encoding settings                        : cabac=1 / ref=4 / deblock=1:0:0 / analyse=0x3:0x133 / me=esa / subme=10 / psy=1 / psy_rd=1.00:0.00 / mixed_ref=1 / me_range=24 / chroma_me=1 / trellis=2 / 8x8dct=1 / cqm=0 / deadzone=21,11 / fast_pskip=1 / chroma_qp_offset=-2 / threads=34 / lookahead_threads=5 / sliced_threads=0 / nr=0 / decimate=1 / interlaced=0 / bluray_compat=0 / constrained_intra=0 / bframes=8 / b_pyramid=2 / b_adapt=2 / b_bias=0 / direct=3 / weightb=1 / open_gop=0 / weightp=2 / keyint=240 / keyint_min=24 / scenecut=40 / intra_refresh=0 / rc_lookahead=60 / rc=crf / mbtree=1 / crf=20.0 / qcomp=0.60 / qpmin=0 / qpmax=69 / qpstep=4 / vbv_maxrate=62500 / vbv_bufsize=78125 / crf_max=0.0 / nal_hrd=none / filler=0 / ip_ratio=1.40 / aq=1:1.00
    Language                                 : English
    Default                                  : Yes
    Forced                                   : No
    Color range                              : Limited
    Color primaries                          : BT.709
    Transfer characteristics                 : BT.709
    Matrix coefficients                      : BT.709
    Statistics Tags Issue                    : mkvmerge v15.0.0 ('Duel with the Devil') 64-bit 2018-02-09 04:20:51 / mkvmerge v15.0.0 ('Duel with the Devil') 64-bit 2018-02-09 04:20:51 / UTC 2018-02-07T08:13:13Z
    FromStats_BitRate                        : 4976621
    FromStats_Duration                       : 01:41:12.483000000
    FromStats_FrameCount                     : 145594
    FromStats_StreamSize                     : 3777556015

    Audio #1
    ID                                       : 2
    Format                                   : AC-3
    Format/Info                              : Audio Coding 3
    Format settings, Endianness              : Big
    Codec ID                                 : A_AC3
    Duration                                 : 1 h 41 min
    Bit rate mode                            : Constant
    Bit rate                                 : 448 kb/s
    Channel(s)                               : 6 channels
    Channel positions                        : Front: L C R, Side: L R, LFE
    Sampling rate                            : 48.0 kHz
    Frame rate                               : 31.250 FPS (1536 SPF)
    Bit depth                                : 16 bits
    Compression mode                         : Lossy
    Stream size                              : 324 MiB (7%)
    Language                                 : Spanish
    Service kind                             : Complete Main
    Default                                  : Yes
    Forced                                   : No
    Statistics Tags Issue                    : mkvmerge v15.0.0 ('Duel with the Devil') 64-bit 2018-02-09 04:20:51 / mkvmerge v15.0.0 ('Duel with the Devil') 64-bit 2018-02-09 04:20:51 / UTC 2018-02-07T08:13:13Z
    FromStats_BitRate                        : 448000
    FromStats_Duration                       : 01:41:12.448000000
    FromStats_FrameCount                     : 189764
    FromStats_StreamSize                     : 340057088

    Audio #2
    ID                                       : 3
    Format                                   : AC-3
    Format/Info                              : Audio Coding 3
    Format settings, Endianness              : Big
    Codec ID                                 : A_AC3
    Duration                                 : 1 h 41 min
    Bit rate mode                            : Constant
    Bit rate                                 : 640 kb/s
    Channel(s)                               : 6 channels
    Channel positions                        : Front: L C R, Side: L R, LFE
    Sampling rate                            : 48.0 kHz
    Frame rate                               : 31.250 FPS (1536 SPF)
    Bit depth                                : 16 bits
    Compression mode                         : Lossy
    Stream size                              : 463 MiB (11%)
    Language                                 : English
    Service kind                             : Complete Main
    Default                                  : No
    Forced                                   : No
    Statistics Tags Issue                    : mkvmerge v15.0.0 ('Duel with the Devil') 64-bit 2018-02-09 04:20:51 / mkvmerge v15.0.0 ('Duel with the Devil') 64-bit 2018-02-09 04:20:51 / UTC 2018-02-07T08:13:13Z
    FromStats_BitRate                        : 640000
    FromStats_Duration                       : 01:41:12.384000000
    FromStats_FrameCount                     : 189762
    FromStats_StreamSize                     : 485790720

    Text #1
    ID                                       : 4
    Format                                   : PGS
    Muxing mode                              : zlib
    Codec ID                                 : S_HDMV/PGS
    Codec ID/Info                            : Picture based subtitle format used on BDs/HD-DVDs
    Language                                 : Spanish
    Default                                  : No
    Forced                                   : No
    Statistics Tags Issue                    : mkvmerge v15.0.0 ('Duel with the Devil') 64-bit 2018-02-09 04:20:51 / mkvmerge v15.0.0 ('Duel with the Devil') 64-bit 2018-02-09 04:20:51 / UTC 2018-02-07T08:13:13Z
    FromStats_BitRate                        : 39890
    FromStats_Duration                       : 01:33:40.287000000
    FromStats_FrameCount                     : 2116
    FromStats_StreamSize                     : 28024293

    Text #2
    ID                                       : 5
    Format                                   : PGS
    Muxing mode                              : zlib
    Codec ID                                 : S_HDMV/PGS
    Codec ID/Info                            : Picture based subtitle format used on BDs/HD-DVDs
    Language                                 : English
    Default                                  : No
    Forced                                   : No
    Statistics Tags Issue                    : mkvmerge v15.0.0 ('Duel with the Devil') 64-bit 2018-02-09 04:20:51 / mkvmerge v15.0.0 ('Duel with the Devil') 64-bit 2018-02-09 04:20:51 / UTC 2018-02-07T08:13:13Z
    FromStats_BitRate                        : 19450
    FromStats_Duration                       : 01:40:18.352000000
    FromStats_FrameCount                     : 2115
    FromStats_StreamSize                     : 14632600

    Menu
    00:00:00.000                             : :Chapter 1
    00:03:38.343                             : :Chapter 2
    00:06:59.377                             : :Chapter 3
    00:09:28.693                             : :Chapter 4
    00:12:18.029                             : :Chapter 5
    00:14:55.770                             : :Chapter 6
    00:17:48.609                             : :Chapter 7
    00:22:53.873                             : :Chapter 8
    00:26:33.509                             : :Chapter 9
    00:30:34.624                             : :Chapter 10
    00:33:57.369                             : :Chapter 11
    00:37:26.035                             : :Chapter 12
    00:39:43.256                             : :Chapter 13
    00:42:54.614                             : :Chapter 14
    00:46:03.052                             : :Chapter 15
    00:48:35.079                             : :Chapter 16
    00:52:56.465                             : :Chapter 17
    00:55:48.053                             : :Chapter 18
    01:00:47.310                             : :Chapter 19
    01:04:04.716                             : :Chapter 20
    01:09:00.720                             : :Chapter 21
    01:16:01.182                             : :Chapter 22
    01:19:52.621                             : :Chapter 23
    01:26:11.833                             : :Chapter 24
    01:28:49.741                             : :Chapter 25
    01:32:57.655                             : :Chapter 26

  • Peso: 4.30 GiB

Sinopsis

Stanley es un ingenuo empleado de banca incapaz de enterarse de cuándo se aprovechan de él, al que su jefe mangonea, al que su casera humilla, y al que solamente su perro parece ser capaz de aguantar. Charlie, un amigo suyo, le invita a ir al cabaret Coco Bongo para intentar estimularle y conseguir que espabile. Pero antes de que eso ocurra, aparece la bella Tina Carlyle, que entra en el banco para hablar con Stanley y de paso fotografiar la caja fuerte con una mini cámara. Es entonces cuando Stanley encuentra una máscara que le da grandes poderes, pero que también le quita todos sus miedos: ahora es libre de actuar como quiera..

 

Audios: Latino AC3 5.1 Editado – Ingles-AC3 5.1 BluRay

Ficha técnica

Video trailer de la película

Enlaces de descarga

Rip de Bluray

Descargar La máscara (1994) Full 1080p Latino




Aportes de DPeliculasHDmega la pass es:dpeliculashdmega.org Aportes de CinemaniaHD la pass es:cinemaniahdd.com

Películas relacionadas

  • Arizona (2018) 1080p Latino

    2018
    Arizona (2018) 1080p Latino

    5.0 1h 25m 2018

    Ambientada en medio de la crisis de la vivienda de 2009, esta oscura y cómica historia sigue a Cassie...

    Director: Mara Herdmann

    Género: Comedia

    Actores: Vivian Nesbitt

  • Si La Colonia Hablara (2018) Remux 1080p Subtitulado

    2018
    Si La Colonia Hablara (2018) Remux 1080p Subtitulado

    5.0 1h 57m 2018

    Descargar Si La Colonia Hablara (2018) Remux 1080p Subtitulado. Basada en la novela de James Baldwin,...

    Director: Barry Jenkins

    Género: Crimen

    Actores: Teyonah Parris

  • Si La Colonia Hablara (2018) Full 1080p Subtitulado

    2018
    Si La Colonia Hablara (2018) Full 1080p Subtitulado

    5.0 1h 57m 2018

    Descargar Si La Colonia Hablara (2018) Full 1080p Subtitulado, Mega, Google Drive. Basada en la novela...

    Director: Barry Jenkins

    Género: Crimen

    Actores: Teyonah Parris

  • Si La Colonia Hablara (2018) 1080p Subtitulado

    2018
    Si La Colonia Hablara (2018) 1080p Subtitulado

    0.0 1h 57m 2018

    Descargar Si La Colonia Hablara (2018) 1080p Subtitulado, Mega, Google Drive. Basada en la novela de...

    Director: Barry Jenkins

    Género: Crimen

    Actores: Teyonah Parris

Comentarios 4
  • mily - 28 marzo, 2018

    liks caidos,,,,resuban por fa

    • dpelis - 28 marzo, 2018

      google drive resubidos

  • TorukMato - 09 febrero, 2018

    Hola amigo…disculpa….puedes especificar q se edito del audio latino…Gracias.!

    • Dracarys - 09 febrero, 2018

      El audio Latino original es una Captura de TV 2.0 que se le agregaron las pistas del 5.1 ingles