La lista de Schindler (1993) 4K HDR Latino – CMHDD

84 vistas
1 estrella2 estrellas3 estrellas4 estrellas5 estrellas (Ninguna valoración todavía)
Cargando...

Información de La lista de Schindler (1993) 4K HDR Latino – CMHDD

Datos de la película

  • Calidad: 4K HDR
  • Audio: Se especifica abajo de la Sinopsis
  • Subtitulos: Español Latino SRT- FORZADOS SRT
  • Resolución: 2840x2076p
  • Formato: MKV
  • Codec: H.264
  • Encoder: Dracarys
  • Mediainfo: Clic para Mostrar Datos Ver
  • Format                      : Matroska
    Format version              : Version 4
    File size                   : 31.0 GiB
    Duration                    : 3 h 15 min
    Overall bit rate mode       : Variable
    Overall bit rate            : 22.7 Mb/s
    Movie name                  : La lista de Schindler (1993) 4K HDR Latino - CMHDD
    Encoded date                : UTC 2020-08-05 17:27:28
    Writing application         : mkvmerge v46.0.0 ('No Deeper Escape') 64-bit
    Writing library             : libebml v1.3.10 + libmatroska v1.5.2

    Video
    ID                          : 1
    Format                      : HEVC
    Format/Info                 : High Efficiency Video Coding
    Format profile              : Main 10@L5.1@High
    HDR format                  : SMPTE ST 2086, HDR10 compatible
    Codec ID                    : V_MPEGH/ISO/HEVC
    Duration                    : 3 h 15 min
    Bit rate                    : 18.3 Mb/s
    Width                       : 3 840 pixels
    Height                      : 2 076 pixels
    Display aspect ratio        : 1.85:1
    Frame rate mode             : Constant
    Frame rate                  : 23.976 (24000/1001) FPS
    Color space                 : YUV
    Chroma subsampling          : 4:2:0 (Type 2)
    Bit depth                   : 10 bits
    Bits/(Pixel*Frame)          : 0.096
    Stream size                 : 25.0 GiB (81%)
    Writing library             : x265 2.8+10-703eade86b53:[Windows][MSVC 1914][64 bit] 10bit
    Encoding settings           : cpuid=1111039 / frame-threads=6 / numa-pools=36 / wpp / no-pmode / no-pme / no-psnr / no-ssim / log-level=2 / input-csp=1 / input-res=3840x2076 / interlace=0 / total-frames=280705 / level-idc=51 / high-tier=1 / uhd-bd=0 / ref=4 / no-allow-non-conformance / repeat-headers / annexb / aud / hrd / info / hash=0 / no-temporal-layers / no-open-gop / min-keyint=1 / keyint=24 / gop-lookahead=0 / bframes=4 / b-adapt=2 / b-pyramid / bframe-bias=0 / rc-lookahead=25 / lookahead-slices=4 / scenecut=40 / radl=0 / no-intra-refresh / ctu=64 / min-cu-size=8 / rect / no-amp / max-tu-size=32 / tu-inter-depth=1 / tu-intra-depth=1 / limit-tu=0 / rdoq-level=2 / dynamic-rd=0.00 / no-ssim-rd / signhide / no-tskip / nr-intra=0 / nr-inter=0 / no-constrained-intra / no-strong-intra-smoothing / max-merge=3 / limit-refs=3 / limit-modes / me=3 / subme=3 / merange=57 / temporal-mvp / weightp / no-weightb / no-analyze-src-pics / deblock=-3:-3 / no-sao / no-sao-non-deblock / rd=4 / no-early-skip / rskip / no-fast-intra / no-tskip-fast / no-cu-lossless / no-b-intra / no-splitrd-skip / rdpenalty=0 / psy-rd=2.00 / psy-rdoq=1.00 / no-rd-refine / no-lossless / cbqpoffs=0 / crqpoffs=0 / rc=crf / crf=22.0 / qcomp=0.60 / qpstep=4 / stats-write=0 / stats-read=0 / vbv-maxrate=160000 / vbv-bufsize=160000 / vbv-init=0.9 / crf-max=0.0 / crf-min=0.0 / ipratio=1.40 / pbratio=1.30 / aq-mode=1 / aq-strength=1.00 / cutree / zone-count=0 / no-strict-cbr / qg-size=32 / no-rc-grain / qpmax=69 / qpmin=0 / no-const-vbv / sar=1 / overscan=0 / videoformat=5 / range=0 / colorprim=9 / transfer=16 / colormatrix=9 / chromaloc=1 / chromaloc-top=2 / chromaloc-bottom=2 / display-window=0 / master-display=G(13250,34500)B(7500,3000)R(34000,16000)WP(15635,16450)L(10000000,10) / max-cll=1000,311 / min-luma=0 / max-luma=1023 / log2-max-poc-lsb=8 / vui-timing-info / vui-hrd-info / slices=1 / no-opt-qp-pps / no-opt-ref-list-length-pps / no-multi-pass-opt-rps / scenecut-bias=0.05 / no-opt-cu-delta-qp / no-aq-motion / hdr / hdr-opt / no-dhdr10-opt / no-idr-recovery-sei / analysis-reuse-level=5 / scale-factor=0 / refine-intra=0 / refine-inter=0 / refine-mv=0 / no-limit-sao / ctu-info=0 / no-lowpass-dct / refine-mv-type=0 / copy-pic=1 / max-ausize-factor=1.0 / no-dynamic-refine / no-single-sei
    Default                     : Yes
    Forced                      : No
    Color range                 : Limited
    Color primaries             : BT.2020
    Transfer characteristics    : PQ
    Matrix coefficients         : BT.2020 non-constant
    Mastering display color pri : Display P3
    Mastering display luminance : min: 0.0010 cd/m2, max: 1000 cd/m2
    Maximum Content Light Level : 1000 cd/m2
    Maximum Frame-Average Light : 311 cd/m2

    Audio #1
    ID                          : 2
    Format                      : DTS
    Format/Info                 : Digital Theater Systems
    Codec ID                    : A_DTS
    Duration                    : 3 h 15 min
    Bit rate mode               : Constant
    Bit rate                    : 768 kb/s
    Channel(s)                  : 6 channels
    Channel layout              : C L R Ls Rs LFE
    Sampling rate               : 48.0 kHz
    Frame rate                  : 93.750 FPS (512 SPF)
    Bit depth                   : 24 bits
    Compression mode            : Lossy
    Delay relative to video     : 1 ms
    Stream size                 : 1.05 GiB (3%)
    Language                    : Spanish
    Default                     : Yes
    Forced                      : No

    Audio #2
    ID                          : 3
    Format                      : AC-3
    Format/Info                 : Audio Coding 3
    Commercial name             : Dolby Digital
    Codec ID                    : A_AC3
    Duration                    : 3 h 15 min
    Bit rate mode               : Constant
    Bit rate                    : 448 kb/s
    Channel(s)                  : 6 channels
    Channel layout              : L R C LFE Ls Rs
    Sampling rate               : 48.0 kHz
    Frame rate                  : 31.250 FPS (1536 SPF)
    Compression mode            : Lossy
    Stream size                 : 625 MiB (2%)
    Language                    : English
    Service kind                : Complete Main
    Default                     : No
    Forced                      : No

    Audio #3
    ID                          : 4
    Format                      : MLP FBA 16-ch
    Format/Info                 : Meridian Lossless Packing FBA with 16-channel presentation
    Commercial name             : Dolby TrueHD with Dolby Atmos
    Codec ID                    : A_TRUEHD
    Duration                    : 3 h 15 min
    Bit rate mode               : Variable
    Bit rate                    : 3 130 kb/s
    Maximum bit rate            : 4 629 kb/s
    Channel(s)                  : 8 channels
    Channel layout              : L R C LFE Ls Rs Lb Rb
    Sampling rate               : 48.0 kHz
    Frame rate                  : 1 200.000 FPS (40 SPF)
    Compression mode            : Lossless
    Stream size                 : 4.27 GiB (14%)
    Language                    : English
    Default                     : No
    Forced                      : No
    Number of dynamic objects   : 11
    Bed channel count           : 1 channel
    Bed channel configuration   : LFE

    Text #1
    ID                          : 5
    Format                      : PGS
    Muxing mode                 : zlib
    Codec ID                    : S_HDMV/PGS
    Codec ID/Info               : Picture based subtitle format used on BDs/HD-DVDs
    Duration                    : 3 h 7 min
    Bit rate                    : 22.4 kb/s
    Count of elements           : 3032
    Stream size                 : 29.9 MiB (0%)
    Language                    : Spanish
    Default                     : No
    Forced                      : No

    Text #2
    ID                          : 6
    Format                      : PGS
    Muxing mode                 : zlib
    Codec ID                    : S_HDMV/PGS
    Codec ID/Info               : Picture based subtitle format used on BDs/HD-DVDs
    Duration                    : 3 h 7 min
    Bit rate                    : 1 182 b/s
    Count of elements           : 100
    Stream size                 : 1.58 MiB (0%)
    Title                       : Forzados
    Language                    : Spanish
    Default                     : No
    Forced                      : No

    Text #3
    ID                          : 7
    Format                      : UTF-8
    Codec ID                    : S_TEXT/UTF8
    Codec ID/Info               : UTF-8 Plain Text
    Duration                    : 3 h 7 min
    Bit rate                    : 36 b/s
    Count of elements           : 1516
    Stream size                 : 49.3 KiB (0%)
    Language                    : Spanish
    Default                     : No
    Forced                      : No

    Text #4
    ID                          : 8
    Format                      : UTF-8
    Codec ID                    : S_TEXT/UTF8
    Codec ID/Info               : UTF-8 Plain Text
    Duration                    : 3 h 7 min
    Bit rate                    : 1 b/s
    Count of elements           : 50
    Stream size                 : 2.48 KiB (0%)
    Title                       : Forzados
    Language                    : Spanish
    Default                     : Yes
    Forced                      : No

    Menu #1
    00:00:00.000                : :Chapter 1
    00:03:23.161                : :Chapter 2
    00:10:12.153                : :Chapter 3
    00:14:51.307                : :Chapter 4
    00:17:28.714                : :Chapter 5
    00:21:42.384                : :Chapter 6
    00:23:48.009                : :Chapter 7
    00:30:37.669                : :Chapter 8
    00:34:23.728                : :Chapter 9
    00:41:43.751                : :Chapter 10
    00:44:16.737                : :Chapter 11
    00:50:55.761                : :Chapter 12
    00:55:09.431                : :Chapter 13
    00:56:44.859                : :Chapter 14
    01:13:44.753                : :Chapter 15
    01:17:05.704                : :Chapter 16
    01:26:02.115                : :Chapter 17
    01:29:26.319                : :Chapter 18
    01:32:01.182                : :Chapter 19
    01:38:36.869                : :Chapter 20
    01:43:19.776                : :Chapter 21
    01:49:36.611                : :Chapter 22
    01:55:45.980                : :Chapter 23
    01:58:42.824                : :Chapter 24
    02:02:59.789                : :Chapter 25
    02:06:49.310                : :Chapter 26
    02:10:11.637                : :Chapter 27
    02:13:44.725                : :Chapter 28
    02:18:21.376                : :Chapter 29
    02:26:46.506                : :Chapter 30
    02:34:15.621                : :Chapter 31
    02:38:48.018                : :Chapter 32
    02:41:15.415                : :Chapter 33
    02:46:21.763                : :Chapter 34
    02:48:12.332                : :Chapter 35
    02:50:23.171                : :Chapter 36
    02:55:28.392                : :Chapter 37
    03:01:51.358                : :Chapter 38
    03:05:04.551                : :Chapter 39
    03:08:50.444                : :Chapter 40

    Menu #2
    00:00:00.000                : en:Chapter 01
    00:03:23.161                : en:Chapter 02
    00:10:12.153                : en:Chapter 03
    00:14:51.307                : en:Chapter 04
    00:17:28.714                : en:Chapter 05
    00:21:42.384                : en:Chapter 06
    00:23:48.010                : en:Chapter 07
    00:30:37.669                : en:Chapter 08
    00:34:23.728                : en:Chapter 09
    00:41:43.751                : en:Chapter 10
    00:44:16.737                : en:Chapter 11
    00:50:55.761                : en:Chapter 12
    00:55:09.431                : en:Chapter 13
    00:56:44.860                : en:Chapter 14
    01:13:44.754                : en:Chapter 15
    01:17:05.704                : en:Chapter 16
    01:26:02.115                : en:Chapter 17
    01:29:26.319                : en:Chapter 18
    01:32:01.182                : en:Chapter 19
    01:38:36.869                : en:Chapter 20
    01:43:19.777                : en:Chapter 21
    01:49:36.612                : en:Chapter 22
    01:55:45.981                : en:Chapter 23
    01:58:42.824                : en:Chapter 24
    02:02:59.789                : en:Chapter 25
    02:06:49.310                : en:Chapter 26
    02:10:11.637                : en:Chapter 27
    02:13:44.725                : en:Chapter 28
    02:18:21.376                : en:Chapter 29
    02:26:46.506                : en:Chapter 30
    02:34:15.621                : en:Chapter 31
    02:38:48.018                : en:Chapter 32
    02:41:15.416                : en:Chapter 33
    02:46:21.763                : en:Chapter 34
    02:48:12.332                : en:Chapter 35
    02:50:23.171                : en:Chapter 36
    02:55:28.393                : en:Chapter 37
    03:01:51.359                : en:Chapter 38
    03:05:04.552                : en:Chapter 39
    03:08:50.444                : en:Chapter 40

  • Peso: 31.0 GiB

Sinopsis

Oskar Schindler, un hombre de enorme astucia y talento para las relaciones públicas, organiza un ambicioso plan para ganarse la simpatía de los nazis. Después de la invasión de Polonia por los alemanes, consigue, gracias a sus relaciones con los nazis, la propiedad de una fábrica de Cracovia. Allí emplea a cientos de operarios judíos, cuya explotación le hace prosperar rápidamente. Su gerente, también judío, es el verdadero director en la sombra, pues Schindler no tiene el menor conocimiento industrial.

 

 

Latino: DTS 5.1  –  Ingles: TrueHD 7.1 + Ac3 5.1

Ficha técnica

Video trailer de la película

Enlaces de descarga

Rip de Bluray

Descargar La lista de Schindler (1993) 4K HDR Latino – CMHDD




Aportes de DPeliculasHDmega la pass es:dpeliculashdmega.org Aportes de CinemaniaHD la pass es:cinemaniahdd.com
Guardado en : 4K HDR , 4K UHD , Bélica , Drama , Historia

Películas relacionadas

Comentarios 0