La guerra de los mundos (2005) Full 1080p Latino

1.762 vistas
1 estrella2 estrellas3 estrellas4 estrellas5 estrellas (6 votos, promedio: 5,00 de 5)
Cargando…

Información de La guerra de los mundos (2005) Full 1080p Latino

Datos de la película

  • Calidad: Full 1080p
  • Audio: Español Latino AC3 5.1 BLURAY - Ingles DTS 5.1 BLURAY
  • Subtitulos: Español Latino PGS - Ingles PGS
  • Resolución: 1920x1080p
  • Formato: MKV
  • Codec: H.264
  • Encoder: Dracarys
  • Mediainfo: Clic para Mostrar Datos Ver
  • Format                                   : Matroska
    Format version                           : Version 4 / Version 2
    File size                                : 15.9 GiB
    Duration                                 : 1 h 56 min
    Overall bit rate                         : 19.5 Mb/s
    Movie name                               : CinemaniaHDD.net
    Encoded date                             : UTC 2018-08-09 02:49:55 / UTC 2018-07-28T17:50:59Z
    Writing application                      : mkvmerge v15.0.0 ('Duel with the Devil') 64-bit
    Writing library                          : libebml v1.3.5 + libmatroska v1.4.5 / Lavf57.7.2

    Video
    ID                                       : 1
    Format                                   : AVC
    Format/Info                              : Advanced Video Codec
    Format profile                           : High@L4.1
    Format settings                          : CABAC / 4 Ref Frames
    Format settings, CABAC                   : Yes
    Format settings, RefFrames               : 4 frames
    Codec ID                                 : V_MPEG4/ISO/AVC
    Duration                                 : 1 h 56 min
    Bit rate                                 : 16.9 Mb/s
    Width                                    : 1 920 pixels
    Height                                   : 1 080 pixels
    Display aspect ratio                     : 16:9
    Frame rate mode                          : Constant
    Frame rate                               : 23.976 (24000/1001) FPS
    Color space                              : YUV
    Chroma subsampling                       : 4:2:0
    Bit depth                                : 8 bits
    Scan type                                : Progressive
    Bits/(Pixel*Frame)                       : 0.341
    Stream size                              : 13.8 GiB (87%)
    Title                                    : La guerra de los mundos (2005) Full 1080p Latino
    Writing library                          : x264 core 148 r2708 86b7198
    Encoding settings                        : cabac=1 / ref=4 / deblock=1:0:0 / analyse=0x3:0x133 / me=esa / subme=10 / psy=1 / psy_rd=1.00:0.00 / mixed_ref=1 / me_range=24 / chroma_me=1 / trellis=2 / 8x8dct=1 / cqm=0 / deadzone=21,11 / fast_pskip=1 / chroma_qp_offset=-2 / threads=34 / lookahead_threads=5 / sliced_threads=0 / nr=0 / decimate=1 / interlaced=0 / bluray_compat=0 / constrained_intra=0 / bframes=8 / b_pyramid=2 / b_adapt=2 / b_bias=0 / direct=3 / weightb=1 / open_gop=0 / weightp=2 / keyint=240 / keyint_min=24 / scenecut=40 / intra_refresh=0 / rc_lookahead=60 / rc=crf / mbtree=1 / crf=20.0 / qcomp=0.60 / qpmin=0 / qpmax=69 / qpstep=4 / vbv_maxrate=62500 / vbv_bufsize=78125 / crf_max=0.0 / nal_hrd=none / filler=0 / ip_ratio=1.40 / aq=1:1.00
    Language                                 : English
    Default                                  : Yes
    Forced                                   : No
    Color range                              : Limited
    Color primaries                          : BT.709
    Transfer characteristics                 : BT.709
    Matrix coefficients                      : BT.709
    Statistics Tags Issue                    : mkvmerge v15.0.0 ('Duel with the Devil') 64-bit 2018-08-09 02:49:55 / mkvmerge v15.0.0 ('Duel with the Devil') 64-bit 2018-08-09 02:49:55 / UTC 2018-07-28T17:50:59Z
    FromStats_BitRate                        : 17313513
    FromStats_Duration                       : 01:56:33.028000000
    FromStats_FrameCount                     : 167665
    FromStats_StreamSize                     : 15134235492

    Audio #1
    ID                                       : 2
    Format                                   : AC-3
    Format/Info                              : Audio Coding 3
    Format settings, Endianness              : Big
    Codec ID                                 : A_AC3
    Duration                                 : 1 h 56 min
    Bit rate mode                            : Constant
    Bit rate                                 : 640 kb/s
    Channel(s)                               : 6 channels
    Channel positions                        : Front: L C R, Side: L R, LFE
    Sampling rate                            : 48.0 kHz
    Frame rate                               : 31.250 FPS (1536 SPF)
    Bit depth                                : 16 bits
    Compression mode                         : Lossy
    Stream size                              : 534 MiB (3%)
    Language                                 : Spanish
    Service kind                             : Complete Main
    Default                                  : Yes
    Forced                                   : No
    Statistics Tags Issue                    : mkvmerge v15.0.0 ('Duel with the Devil') 64-bit 2018-08-09 02:49:55 / mkvmerge v15.0.0 ('Duel with the Devil') 64-bit 2018-08-09 02:49:55 / UTC 2018-07-28T17:50:59Z
    FromStats_BitRate                        : 640000
    FromStats_Duration                       : 01:56:33.088000000
    FromStats_FrameCount                     : 218534
    FromStats_StreamSize                     : 559447040

    Audio #2
    ID                                       : 3
    Format                                   : DTS
    Format/Info                              : Digital Theater Systems
    Mode                                     : 16
    Format settings, Endianness              : Big
    Codec ID                                 : A_DTS
    Duration                                 : 1 h 56 min
    Bit rate mode                            : Constant
    Bit rate                                 : 1 509 kb/s
    Channel(s)                               : 6 channels
    Channel positions                        : Front: L C R, Side: L R, LFE
    Sampling rate                            : 48.0 kHz
    Frame rate                               : 93.750 FPS (512 SPF)
    Bit depth                                : 24 bits
    Compression mode                         : Lossy
    Stream size                              : 1.23 GiB (8%)
    Language                                 : English
    Default                                  : No
    Forced                                   : No
    Statistics Tags Issue                    : mkvmerge v15.0.0 ('Duel with the Devil') 64-bit 2018-08-09 02:49:55 / mkvmerge v15.0.0 ('Duel with the Devil') 64-bit 2018-08-09 02:49:55 / UTC 2018-07-28T17:50:59Z
    FromStats_BitRate                        : 1508999
    FromStats_Duration                       : 01:56:33.035000000
    FromStats_FrameCount                     : 655597
    FromStats_StreamSize                     : 1319061164

    Text #1
    ID                                       : 4
    Format                                   : PGS
    Muxing mode                              : zlib
    Codec ID                                 : S_HDMV/PGS
    Codec ID/Info                            : Picture based subtitle format used on BDs/HD-DVDs
    Language                                 : English
    Default                                  : No
    Forced                                   : No
    Statistics Tags Issue                    : mkvmerge v15.0.0 ('Duel with the Devil') 64-bit 2018-08-09 02:49:55 / mkvmerge v15.0.0 ('Duel with the Devil') 64-bit 2018-08-09 02:49:55 / UTC 2018-07-28T17:50:59Z
    FromStats_BitRate                        : 28327
    FromStats_Duration                       : 01:54:42.510000000
    FromStats_FrameCount                     : 2240
    FromStats_StreamSize                     : 24370501

    Text #2
    ID                                       : 5
    Format                                   : PGS
    Muxing mode                              : zlib
    Codec ID                                 : S_HDMV/PGS
    Codec ID/Info                            : Picture based subtitle format used on BDs/HD-DVDs
    Language                                 : Spanish
    Default                                  : No
    Forced                                   : No
    Statistics Tags Issue                    : mkvmerge v15.0.0 ('Duel with the Devil') 64-bit 2018-08-09 02:49:55 / mkvmerge v15.0.0 ('Duel with the Devil') 64-bit 2018-08-09 02:49:55 / UTC 2018-07-28T17:50:59Z
    FromStats_BitRate                        : 23174
    FromStats_Duration                       : 01:54:42.584000000
    FromStats_FrameCount                     : 2146
    FromStats_StreamSize                     : 19937955

    Menu
    00:00:00.000                             : :Chapter 1
    00:04:16.006                             : :Chapter 2
    00:08:18.248                             : :Chapter 3
    00:13:17.380                             : :Chapter 4
    00:19:19.867                             : :Chapter 5
    00:25:29.319                             : :Chapter 6
    00:29:45.242                             : :Chapter 7
    00:34:32.571                             : :Chapter 8
    00:38:47.033                             : :Chapter 9
    00:43:53.256                             : :Chapter 10
    00:49:03.732                             : :Chapter 11
    00:55:17.105                             : :Chapter 12
    00:59:21.016                             : :Chapter 13
    01:04:44.172                             : :Chapter 14
    01:10:37.233                             : :Chapter 15
    01:15:53.299                             : :Chapter 16
    01:20:28.991                             : :Chapter 17
    01:24:48.000                             : :Chapter 18
    01:29:03.964                             : :Chapter 19
    01:33:59.884                             : :Chapter 20
    01:36:59.605                             : :Chapter 21
    01:41:07.562                             : :Chapter 22
    01:45:27.404                             : :Chapter 23
    01:49:42.367                             : :Chapter 24

  • Peso: 15.9 GiB

Sinopsis

Basada en una popular novela de HG Wells, narra la historia de una invasión del planeta tierra por los marcianos, y la extraordinaria batalla de la humanidad por la supervivencia a través de los ojos de una familia americana. Ray Ferrier (Tom Cruise) es un descargador de muelle, divorciado y padre nada modélico. Poco después de que su ex mujer y su nuevo marido se vayan después de dejar a Robbie, su hijo adolescente, y a su pequeña hija Rachel para una de sus contadas visitas, estalla una tremenda e inesperada tormenta eléctrica. Unos momentos después, en un cruce cerca de la casa, Ray es testigo de un acontecimiento que cambiará su vida y la de los suyos para siempre. Una enorme máquina de tres patas emerge del suelo y antes de que alguien pueda hacer algo, arrasa todo lo que está a su alcance. Un día como otro cualquiera acaba de convertirse en la fecha más extraordinaria de su vida: el primer ataque alienígena contra la Tierra.

Ficha técnica

Video trailer de la película

Enlaces de descarga

Rip de Bluray

Descargar La guerra de los mundos (2005) Full 1080p Latino




Aportes de DPeliculasHDmega la pass es:dpeliculashdmega.org Aportes de CinemaniaHD la pass es:cinemaniahdd.com

Películas relacionadas

  • Godzilla (2014) 1080p Latino

    2014
    Godzilla (2014) 1080p Latino

    0.0 2h 3m 2014

    Descargar Godzilla (2014) 1080p Latino, Mega, Google Drive, Torrent. Gareth Edwards dirige este "reboot",...

    Director: Jessica Clothier

    Género: Acción

    Actores: Yuki Morita

  • Godzilla (2014) Full 1080p Latino

    2014
    Godzilla (2014) Full 1080p Latino

    4.2 2h 3m 2014

    Descargar Godzilla (2014) Full 1080p Latino, Mega, Google Drive, Torrent. Gareth Edwards dirige este...

    Director: Jessica Clothier

    Género: Acción

    Actores: Yuki Morita

  • Un pequeño favor (2018) Full 1080p Latino

    2018
    Un pequeño favor (2018) Full 1080p Latino

    5.0 1h 57m 2018

    Descargar Un pequeño favor (2018) Full 1080p Latino, Mega, Google Drive, Torrent. Stephanie es una joven...

    Director: Paul Feig

    Género: Crimen

    Actores: Zach Smadu

  • Un pequeño favor (2018) 1080p Latino

    2018
    Un pequeño favor (2018) 1080p Latino

    5.0 1h 57m 2018

    Un pequeño favor  torrnet Stephanie es una joven madre bloguera de una ciudad pequeña cuya mejor amiga,...

    Director: Paul Feig

    Género: Crimen

    Actores: Zach Smadu

Comentarios 3
  • Andrew - 11 agosto, 2018

    Los enlaces de Google Drive están restringidos desde hace 48 horas no he podido descargarla.

  • edgar garcia - 11 agosto, 2018

    esta pelicula la veia muchas veces de niño aunque si me daba miedo, gracias por la pelicula la descargare

  • ocpgaiden - 09 agosto, 2018

    Gracias por la pelicula, saludos