La forma del agua (2017) Full 1080p Latino

8.802 vistas
1 estrella2 estrellas3 estrellas4 estrellas5 estrellas (5 votos, promedio: 3,60 de 5)
Cargando…

Información de La forma del agua (2017) Full 1080p Latino

Datos de la película

  • Calidad: Full 1080p
  • Audio: Español Latino AC3 5.1 BLURAY - Ingles DTS 5.1 BLURAY
  • Subtitulos: Español Latino PGS - Ingles PGS
  • Resolución: 1920X1080p
  • Formato: MKV
  • Codec: H.264
  • Encoder: Dracarys
  • Mediainfo: Clic para Mostrar Datos Ver
  • Format                                   : Matroska
    Format version                           : Version 4 / Version 2
    File size                                : 4.73 GiB
    Duration                                 : 2 h 3 min
    Overall bit rate                         : 5 485 kb/s
    Movie name                               : CinemaniaHDD.com
    Encoded date                             : UTC 2018-03-04 02:00:06 / UTC 2018-03-03T17:10:00Z
    Writing application                      : mkvmerge v15.0.0 ('Duel with the Devil') 64-bit
    Writing library                          : libebml v1.3.5 + libmatroska v1.4.5 / Lavf57.7.2

    Video
    ID                                       : 1
    Format                                   : AVC
    Format/Info                              : Advanced Video Codec
    Format profile                           : [email protected]
    Format settings                          : CABAC / 4 Ref Frames
    Format settings, CABAC                   : Yes
    Format settings, RefFrames               : 4 frames
    Codec ID                                 : V_MPEG4/ISO/AVC
    Duration                                 : 2 h 3 min
    Bit rate                                 : 3 419 kb/s
    Width                                    : 1 920 pixels
    Height                                   : 1 080 pixels
    Display aspect ratio                     : 16:9
    Frame rate mode                          : Constant
    Frame rate                               : 23.976 (24000/1001) FPS
    Color space                              : YUV
    Chroma subsampling                       : 4:2:0
    Bit depth                                : 8 bits
    Scan type                                : Progressive
    Bits/(Pixel*Frame)                       : 0.069
    Stream size                              : 2.95 GiB (62%)
    Title                                    : La forma del agua (2017) Full 1080p Latino
    Writing library                          : x264 core 148 r2708 86b7198
    Encoding settings                        : cabac=1 / ref=4 / deblock=1:0:0 / analyse=0x3:0x133 / me=esa / subme=10 / psy=1 / psy_rd=1.00:0.00 / mixed_ref=1 / me_range=24 / chroma_me=1 / trellis=2 / 8x8dct=1 / cqm=0 / deadzone=21,11 / fast_pskip=1 / chroma_qp_offset=-2 / threads=34 / lookahead_threads=5 / sliced_threads=0 / nr=0 / decimate=1 / interlaced=0 / bluray_compat=0 / constrained_intra=0 / bframes=8 / b_pyramid=2 / b_adapt=2 / b_bias=0 / direct=3 / weightb=1 / open_gop=0 / weightp=2 / keyint=240 / keyint_min=24 / scenecut=40 / intra_refresh=0 / rc_lookahead=60 / rc=crf / mbtree=1 / crf=20.0 / qcomp=0.60 / qpmin=0 / qpmax=69 / qpstep=4 / vbv_maxrate=62500 / vbv_bufsize=78125 / crf_max=0.0 / nal_hrd=none / filler=0 / ip_ratio=1.40 / aq=1:1.00
    Language                                 : English
    Default                                  : Yes
    Forced                                   : No
    Color range                              : Limited
    Color primaries                          : BT.709
    Transfer characteristics                 : BT.709
    Matrix coefficients                      : BT.709
    Statistics Tags Issue                    : mkvmerge v15.0.0 ('Duel with the Devil') 64-bit 2018-03-04 02:00:06 / mkvmerge v15.0.0 ('Duel with the Devil') 64-bit 2018-03-04 02:00:06 / UTC 2018-03-03T17:10:00Z
    FromStats_BitRate                        : 3520437
    FromStats_Duration                       : 02:03:19.434000000
    FromStats_FrameCount                     : 177409
    FromStats_StreamSize                     : 3256155813

    Audio #1
    ID                                       : 2
    Format                                   : AC-3
    Format/Info                              : Audio Coding 3
    Format settings, Endianness              : Big
    Codec ID                                 : A_AC3
    Duration                                 : 2 h 3 min
    Bit rate mode                            : Constant
    Bit rate                                 : 448 kb/s
    Channel(s)                               : 6 channels
    Channel positions                        : Front: L C R, Side: L R, LFE
    Sampling rate                            : 48.0 kHz
    Frame rate                               : 31.250 FPS (1536 SPF)
    Bit depth                                : 16 bits
    Compression mode                         : Lossy
    Stream size                              : 395 MiB (8%)
    Language                                 : Spanish
    Service kind                             : Complete Main
    Default                                  : Yes
    Forced                                   : No
    Statistics Tags Issue                    : mkvmerge v15.0.0 ('Duel with the Devil') 64-bit 2018-03-04 02:00:06 / mkvmerge v15.0.0 ('Duel with the Devil') 64-bit 2018-03-04 02:00:06 / UTC 2018-03-03T17:10:00Z
    FromStats_BitRate                        : 448000
    FromStats_Duration                       : 02:03:19.456000000
    FromStats_FrameCount                     : 231233
    FromStats_StreamSize                     : 414369536

    Audio #2
    ID                                       : 3
    Format                                   : DTS
    Format/Info                              : Digital Theater Systems
    Mode                                     : 16
    Format settings, Endianness              : Big
    Codec ID                                 : A_DTS
    Duration                                 : 2 h 3 min
    Bit rate mode                            : Constant
    Bit rate                                 : 1 509 kb/s
    Channel(s)                               : 6 channels
    Channel positions                        : Front: L C R, Side: L R, LFE
    Sampling rate                            : 48.0 kHz
    Frame rate                               : 93.750 FPS (512 SPF)
    Bit depth                                : 24 bits
    Compression mode                         : Lossy
    Stream size                              : 1.30 GiB (28%)
    Language                                 : English
    Default                                  : No
    Forced                                   : No
    Statistics Tags Issue                    : mkvmerge v15.0.0 ('Duel with the Devil') 64-bit 2018-03-04 02:00:06 / mkvmerge v15.0.0 ('Duel with the Devil') 64-bit 2018-03-04 02:00:06 / UTC 2018-03-03T17:10:00Z
    FromStats_BitRate                        : 1508999
    FromStats_Duration                       : 02:03:19.435000000
    FromStats_FrameCount                     : 693697
    FromStats_StreamSize                     : 1395718364

    Text #1
    ID                                       : 4
    Format                                   : PGS
    Muxing mode                              : zlib
    Codec ID                                 : S_HDMV/PGS
    Codec ID/Info                            : Picture based subtitle format used on BDs/HD-DVDs
    Language                                 : English
    Default                                  : No
    Forced                                   : No
    Statistics Tags Issue                    : mkvmerge v15.0.0 ('Duel with the Devil') 64-bit 2018-03-04 02:00:06 / mkvmerge v15.0.0 ('Duel with the Devil') 64-bit 2018-03-04 02:00:06 / UTC 2018-03-03T17:10:00Z
    FromStats_BitRate                        : 1229
    FromStats_Duration                       : 01:47:24.355000000
    FromStats_FrameCount                     : 338
    FromStats_StreamSize                     : 990721

    Text #2
    ID                                       : 5
    Format                                   : PGS
    Muxing mode                              : zlib
    Codec ID                                 : S_HDMV/PGS
    Codec ID/Info                            : Picture based subtitle format used on BDs/HD-DVDs
    Language                                 : Spanish
    Default                                  : No
    Forced                                   : No
    Statistics Tags Issue                    : mkvmerge v15.0.0 ('Duel with the Devil') 64-bit 2018-03-04 02:00:06 / mkvmerge v15.0.0 ('Duel with the Devil') 64-bit 2018-03-04 02:00:06 / UTC 2018-03-03T17:10:00Z
    FromStats_BitRate                        : 15751
    FromStats_Duration                       : 02:01:39.542000000
    FromStats_FrameCount                     : 2759
    FromStats_StreamSize                     : 14371968

    Menu
    00:00:00.000                             : :Chapter 1
    00:06:24.467                             : :Chapter 2
    00:12:54.774                             : :Chapter 3
    00:18:32.987                             : :Chapter 4
    00:23:45.591                             : :Chapter 5
    00:29:39.653                             : :Chapter 6
    00:35:29.836                             : :Chapter 7
    00:39:30.535                             : :Chapter 8
    00:42:42.435                             : :Chapter 9
    00:48:34.036                             : :Chapter 10
    00:52:26.935                             : :Chapter 11
    00:57:30.197                             : :Chapter 12
    01:01:52.542                             : :Chapter 13
    01:07:35.552                             : :Chapter 14
    01:12:13.496                             : :Chapter 15
    01:17:50.791                             : :Chapter 16
    01:21:17.122                             : :Chapter 17
    01:26:05.911                             : :Chapter 18
    01:32:48.605                             : :Chapter 19
    01:37:18.833                             : :Chapter 20
    01:43:24.240                             : :Chapter 21
    01:46:06.610                             : :Chapter 22
    01:50:31.750                             : :Chapter 23
    01:58:34.858                             : :Chapter 24

  • Peso: 4.73 GiB

Sinopsis

En un inquietante laboratorio de alta seguridad, durante la Guerra Fría, se produce una conexión insólita entre dos mundos, aparentemente alejados. La vida de la solitaria Elisa (Sally Hawkins), trabajadora del laboratorio, cambia por completo cuando descubre un experimento clasificado como secreto: un hombre anfibio (Doug Jones) que se encuentra ahí recluido.

Ficha técnica

Video trailer de la película

Enlaces de descarga

Rip de Bluray

Descargar La forma del agua (2017) Full 1080p Latino




Aportes de DPeliculasHDmega la pass es:dpeliculashdmega.org Aportes de CinemaniaHD la pass es:cinemaniahdd.com

Películas relacionadas

  • Sorry For Your Loss (2018) AMZN 1080p Latino

    2018
    Sorry For Your Loss (2018) AMZN 1080p Latino

    5.0 1h 40m 2018

    Sorry for Your Loss es una comedia oscura que narra la historia de una joven viuda Leigh Gibbs. Para...

    Director: Collin Friesen

    Género: Comedia

    Actores: Sandrine Holt

  • Grace and Frankie (2019) Temporada 5 NF 1080p Latino

    2015
    Grace and Frankie (2019) Temporada 5 NF 1080p Latino

    0.0 0h 32m 2015

    Esta comedia se centra en dos antiguas rivales, Grace (Jane Fonda) y Frankie (Lily Tomlin), y el cambio...

    Director: Marta Kauffman

    Género: Comedia

    Actores: Tim Bagley

  • The Punisher (2019) Temporada 2 NF 1080p Latino

    2017
    The Punisher (2019) Temporada 2 NF 1080p Latino

    5.0 0h 53m 2017

    Por ahora, Netflix no ha revelado el contenido de la temporada 2 de "The Punisher", ya que lo único...

    Director: Steve Lightfoot

    Género: Action & Adventure

    Actores: Josh Stewart

  • La buena esposa (2017) Web-DL 1080p Latino

    2018
    La buena esposa (2017) Web-DL 1080p Latino

    0.0 1h 40m 2018

    Descargar La buena esposa (2017) Web-DL 1080p Latino, Mega, Google Drive, Torrent. Joan Castleman (Glenn...

    Director: Björn Runge

    Género: Drama

    Actores: Twinnie Lee Moore

Comentarios 10
  • VANE BR - 06 marzo, 2018

    Gracias por el aporte.. Podrian subir capitán América Civil War, en versión plateada…. Gracias.

  • Carlos - 05 marzo, 2018

    No aparecen los enlaces en mega, gracias

    • dpelis - 06 marzo, 2018

      agregados enlaces mega

  • Ragnarok - 05 marzo, 2018

    Disculpen amigos de cinemaniahdd me podrían proporcionar los subtitulos forzados de esta película por favor gracias de antemano

  • Tio Higuera - 05 marzo, 2018

    Ganador del Oscar a MEJOR PELÍCULA !!!
    BIEN MEMO DEL TORO.
    Hagan un Especial de Guillermo del Toro.
    Se agradecen los aportes.

  • vilko - 04 marzo, 2018

    amigos, podrían subir las películas que faltan en la pagina de Disney Pixar por favor.

  • jk2010 - 04 marzo, 2018

    y pusieron el ingles forzado y el mas importande el psg forzado español no de todas forma gracias..

  • Slash - 04 marzo, 2018

    Gracias, ya me vi la negra, pero me bajo esta para la colección.