Kin (2018) Full 1080p Latino

685 vistas
1 estrella2 estrellas3 estrellas4 estrellas5 estrellas (1 votos, promedio: 4,00 de 5)
Cargando…

Información de Kin (2018) Full 1080p Latino

Datos de la película

  • Calidad: Full 1080p
  • Audio: Español Latino AC3 5.1 BLURAY - Ingles DTS 5.1 BLURAY
  • Subtitulos: Español Latino PGS - Ingles PGS
  • Resolución: 1920x1080p
  • Formato: MKV
  • Codec: H.264
  • Encoder: Dracarys
  • Mediainfo: Clic para Mostrar Datos Ver
  • Format                                   : Matroska
    Format version                           : Version 4 / Version 2
    File size                                : 5.21 GiB
    Duration                                 : 1 h 41 min
    Overall bit rate                         : 7 313 kb/s
    Movie name                               : CinemaniaHDD.net
    Encoded date                             : UTC 2018-11-14 00:23:14 / UTC 2018-11-13T17:46:32Z
    Writing application                      : mkvmerge v15.0.0 ('Duel with the Devil') 64-bit
    Writing library                          : libebml v1.3.5 + libmatroska v1.4.5 / Lavf57.7.2

    Video
    ID                                       : 1
    Format                                   : AVC
    Format/Info                              : Advanced Video Codec
    Format profile                           : High@L4.1
    Format settings                          : CABAC / 4 Ref Frames
    Format settings, CABAC                   : Yes
    Format settings, RefFrames               : 4 frames
    Codec ID                                 : V_MPEG4/ISO/AVC
    Duration                                 : 1 h 41 min
    Bit rate                                 : 5 018 kb/s
    Width                                    : 1 920 pixels
    Height                                   : 1 080 pixels
    Display aspect ratio                     : 16:9
    Frame rate mode                          : Constant
    Frame rate                               : 23.976 (24000/1001) FPS
    Color space                              : YUV
    Chroma subsampling                       : 4:2:0
    Bit depth                                : 8 bits
    Scan type                                : Progressive
    Bits/(Pixel*Frame)                       : 0.101
    Stream size                              : 3.57 GiB (69%)
    Writing library                          : x264 core 148 r2708 86b7198
    Encoding settings                        : cabac=1 / ref=4 / deblock=1:0:0 / analyse=0x3:0x133 / me=esa / subme=10 / psy=1 / psy_rd=1.00:0.00 / mixed_ref=1 / me_range=24 / chroma_me=1 / trellis=2 / 8x8dct=1 / cqm=0 / deadzone=21,11 / fast_pskip=1 / chroma_qp_offset=-2 / threads=34 / lookahead_threads=5 / sliced_threads=0 / nr=0 / decimate=1 / interlaced=0 / bluray_compat=0 / constrained_intra=0 / bframes=8 / b_pyramid=2 / b_adapt=2 / b_bias=0 / direct=3 / weightb=1 / open_gop=0 / weightp=2 / keyint=240 / keyint_min=24 / scenecut=40 / intra_refresh=0 / rc_lookahead=60 / rc=crf / mbtree=1 / crf=20.0 / qcomp=0.60 / qpmin=0 / qpmax=69 / qpstep=4 / vbv_maxrate=62500 / vbv_bufsize=78125 / crf_max=0.0 / nal_hrd=none / filler=0 / ip_ratio=1.40 / aq=1:1.00
    Language                                 : English
    Default                                  : Yes
    Forced                                   : No
    Color range                              : Limited
    Color primaries                          : BT.709
    Transfer characteristics                 : BT.709
    Matrix coefficients                      : BT.709
    Statistics Tags Issue                    : mkvmerge v15.0.0 ('Duel with the Devil') 64-bit 2018-11-14 00:23:14 / mkvmerge v15.0.0 ('Duel with the Devil') 64-bit 2018-11-14 00:23:14 / UTC 2018-11-13T17:46:32Z
    FromStats_BitRate                        : 5136350
    FromStats_Duration                       : 01:41:54.192000000
    FromStats_FrameCount                     : 146594
    FromStats_StreamSize                     : 3925579251

    Audio #1
    ID                                       : 2
    Format                                   : AC-3
    Format/Info                              : Audio Coding 3
    Format settings, Endianness              : Big
    Codec ID                                 : A_AC3
    Duration                                 : 1 h 41 min
    Bit rate mode                            : Constant
    Bit rate                                 : 640 kb/s
    Channel(s)                               : 6 channels
    Channel positions                        : Front: L C R, Side: L R, LFE
    Sampling rate                            : 48.0 kHz
    Frame rate                               : 31.250 FPS (1536 SPF)
    Bit depth                                : 16 bits
    Compression mode                         : Lossy
    Delay relative to video                  : 55 ms
    Stream size                              : 466 MiB (9%)
    Language                                 : Spanish
    Service kind                             : Complete Main
    Default                                  : Yes
    Forced                                   : No
    Statistics Tags Issue                    : mkvmerge v15.0.0 ('Duel with the Devil') 64-bit 2018-11-14 00:23:14 / mkvmerge v15.0.0 ('Duel with the Devil') 64-bit 2018-11-14 00:23:14 / UTC 2018-11-13T17:46:32Z
    FromStats_BitRate                        : 640000
    FromStats_Duration                       : 01:41:53.600000000
    FromStats_FrameCount                     : 191050
    FromStats_StreamSize                     : 489088000

    Audio #2
    ID                                       : 3
    Format                                   : DTS
    Format/Info                              : Digital Theater Systems
    Mode                                     : 16
    Format settings, Endianness              : Big
    Codec ID                                 : A_DTS
    Duration                                 : 1 h 41 min
    Bit rate mode                            : Constant
    Bit rate                                 : 1 509 kb/s
    Channel(s)                               : 6 channels
    Channel positions                        : Front: L C R, Side: L R, LFE
    Sampling rate                            : 48.0 kHz
    Frame rate                               : 93.750 FPS (512 SPF)
    Bit depth                                : 24 bits
    Compression mode                         : Lossy
    Delay relative to video                  : 53 ms
    Stream size                              : 1.07 GiB (21%)
    Language                                 : English
    Default                                  : No
    Forced                                   : No
    Statistics Tags Issue                    : mkvmerge v15.0.0 ('Duel with the Devil') 64-bit 2018-11-14 00:23:14 / mkvmerge v15.0.0 ('Duel with the Devil') 64-bit 2018-11-14 00:23:14 / UTC 2018-11-13T17:46:32Z
    FromStats_BitRate                        : 1508999
    FromStats_Duration                       : 01:41:53.579000000
    FromStats_FrameCount                     : 573148
    FromStats_StreamSize                     : 1153173776

    Text #1
    ID                                       : 4
    Format                                   : PGS
    Muxing mode                              : zlib
    Codec ID                                 : S_HDMV/PGS
    Codec ID/Info                            : Picture based subtitle format used on BDs/HD-DVDs
    Language                                 : English
    Default                                  : No
    Forced                                   : No
    Statistics Tags Issue                    : mkvmerge v15.0.0 ('Duel with the Devil') 64-bit 2018-11-14 00:23:14 / mkvmerge v15.0.0 ('Duel with the Devil') 64-bit 2018-11-14 00:23:14 / UTC 2018-11-13T17:46:32Z
    FromStats_BitRate                        : 28333
    FromStats_Duration                       : 01:34:31.188000000
    FromStats_FrameCount                     : 2144
    FromStats_StreamSize                     : 20085682

    Text #2
    ID                                       : 5
    Format                                   : PGS
    Muxing mode                              : zlib
    Codec ID                                 : S_HDMV/PGS
    Codec ID/Info                            : Picture based subtitle format used on BDs/HD-DVDs
    Language                                 : Spanish
    Default                                  : No
    Forced                                   : No
    Statistics Tags Issue                    : mkvmerge v15.0.0 ('Duel with the Devil') 64-bit 2018-11-14 00:23:14 / mkvmerge v15.0.0 ('Duel with the Devil') 64-bit 2018-11-14 00:23:14 / UTC 2018-11-13T17:46:32Z
    FromStats_BitRate                        : 25522
    FromStats_Duration                       : 01:34:31.146000000
    FromStats_FrameCount                     : 2030
    FromStats_StreamSize                     : 18092924

    Menu
    00:00:00.000                             : :Chapter 1
    00:07:23.735                             : :Chapter 2
    00:12:34.754                             : :Chapter 3
    00:20:44.493                             : :Chapter 4
    00:27:27.855                             : :Chapter 5
    00:31:57.165                             : :Chapter 6
    00:36:39.823                             : :Chapter 7
    00:41:57.306                             : :Chapter 8
    00:50:08.714                             : :Chapter 9
    00:56:57.497                             : :Chapter 10
    01:05:01.356                             : :Chapter 11
    01:08:01.369                             : :Chapter 12
    01:13:58.601                             : :Chapter 13
    01:17:52.209                             : :Chapter 14
    01:25:58.737                             : :Chapter 15
    01:34:28.955                             : :Chapter 16

  • Peso: 5.21 GiB

Sinopsis

Perseguidos por un criminal vengativo (James Franco) y una banda de soldados sobrenaturales,​ un exconvicto recién liberado (Jack Reynor) y su hermano adolescente adoptado (Myles Truitt) se ven obligados a escapar con un arma de origen misterioso que es su única protección.

Ficha técnica

Video trailer de la película

Enlaces de descarga

Rip de Bluray

Descargar Kin (2018) Full 1080p Latino




Aportes de DPeliculasHDmega la pass es:dpeliculashdmega.org Aportes de CinemaniaHD la pass es:cinemaniahdd.com

Películas relacionadas

  • Matar o morir (2018) 1080p Subtitulado

    2018
    Matar o morir (2018) 1080p Subtitulado

    5.0 1h 41m 2018

    Descargar Matar o morir [Peppermint] (2018) 1080p Subtitulado, Mega, Google Drive. LRiley North (Jennifer...

    Director: Pierre Morel

    Género: Acción

    Actores: YaYa Gosselin

  • Ni en tus sueños (2010) Full 1080p Latino

    2010
    Ni en tus sueños (2010) Full 1080p Latino

    0.0 1h 44m 2010

    Descargar Ni en tus sueños (2010) Full 1080p Latino, Mega, Google Drive. Kirk (Jay Baruchel, "Tropic...

    Director: Richard L. Fox

    Género: Comedia

    Actores: Yan Xi

  • La Chica de La Capa Roja (2011) Full 1080p Latino

    2011
    La Chica de La Capa Roja (2011) Full 1080p Latino

    4.7 1h 40m 2011

    Descargar La Chica de La Capa Roja (2011) Full 1080p Latino, Mega, Google Drive. La joven Valerie se...

    Director: Kimi Webber

    Género: Fantasía

    Actores: Virginia Madsen

  • Soy el número cuatro (2011) 1080p Latino

    2011
    Soy el número cuatro (2011) 1080p Latino

    0.0 1h 42m 2011

    Descargar Soy el número cuatro (2011) 1080p Latino, Mega, Google Drive. Aunque tenga la apariencia de...

    Director: D.J. Caruso

    Género: Acción

    Actores: Zoe Simek

  • Soy el número cuatro (2011) Full 1080p Latino

    2011
    Soy el número cuatro (2011) Full 1080p Latino

    0.0 1h 42m 2011

    Descargar Soy el número cuatro (2011) Full 1080p Latino, Mega, Google Drive. Aunque tenga la apariencia...

    Director: D.J. Caruso

    Género: Acción

    Actores: Zoe Simek

Comentarios 0