×

¿Problemas para descargar con Mozilla, EDGE? Deshabilita la opción "Abrir vinculos en una pestaña nueva" tal como lo muestra ésta imagen.

KENGAN ASHURA (2019) Temporada 1 NF WEB-DL 1080p Latino

2.043 vistas

Información de KENGAN ASHURA (2019) Temporada 1 NF WEB-DL 1080p Latino

AAAABdPYo VtAJpfzsPGHRYiImZJsLSCaLfsIAomnhTTmRxKkUp2qEQZq1dCGe75EWV7jMa4TkXmaGRLPCE5GzezbeisOpkXwvy

Datos de la película

  • Calidad: WEBDL
  • Audio: Español Latino E-AC3 2.0 Netflix - Japones E-AC3 2.0 Netflix
  • Subtitulos: Español Latino SRT - Ingles SRT
  • Resolución: 1920x1080
  • Formato: MKV
  • Codec: H.264
  • Encoder: cinemaniahdd
  • Mediainfo: Clic para Mostrar Datos Ver
  • Kengan Ashura S01E01 NF WEB-DL 1080p Latino.mkv
    Format                      : Matroska
    Format version              : Version 4
    File size                   : 1.14 GiB
    Duration                    : 24 min 43 s
    Overall bit rate mode       : Variable
    Overall bit rate            : 6 599 kb/s
    Movie name                  : Kengan Ashura S01E01 - CinemaniaHDD,Net
    Encoded date                : UTC 2019-07-31 22:56:55
    Writing application         : mkvmerge v35.0.0 ('All The Love In The World') 64-bit
    Writing library             : libebml v1.3.9 + libmatroska v1.5.2

    Video
    ID                          : 1
    Format                      : AVC
    Format/Info                 : Advanced Video Codec
    Format profile              : Main@L4
    Format settings             : CABAC / 3 Ref Frames
    Format settings, CABAC      : Yes
    Format settings, ReFrames   : 3 frames
    Codec ID                    : V_MPEG4/ISO/AVC
    Duration                    : 24 min 43 s
    Bit rate mode               : Variable
    Bit rate                    : 6 490 kb/s
    Maximum bit rate            : 9 735 kb/s
    Width                       : 1 920 pixels
    Height                      : 1 080 pixels
    Display aspect ratio        : 16:9
    Frame rate mode             : Constant
    Frame rate                  : 23.976 (24000/1001) FPS
    Color space                 : YUV
    Chroma subsampling          : 4:2:0
    Bit depth                   : 8 bits
    Scan type                   : Progressive
    Bits/(Pixel*Frame)          : 0.131
    Stream size                 : 1.11 GiB (97%)
    Title                       : CinemaniaHDD
    Writing library             : x264 core 148 r2715 7e75228
    Encoding settings           : cabac=1 / ref=3 / deblock=1:0:0 / analyse=0x1:0x111 / me=umh / subme=10 / psy=1 / psy_rd=1.00:0.00 / mixed_ref=1 / me_range=24 / chroma_me=1 / trellis=2 / 8x8dct=0 / cqm=0 / deadzone=21,11 / fast_pskip=1 / chroma_qp_offset=-2 / threads=8 / lookahead_threads=1 / sliced_threads=0 / nr=0 / decimate=1 / interlaced=0 / bluray_compat=0 / stitchable=1 / constrained_intra=0 / bframes=2 / b_pyramid=0 / b_adapt=2 / b_bias=0 / direct=3 / weightb=1 / open_gop=0 / weightp=2 / keyint=48 / keyint_min=25 / scenecut=0 / intra_refresh=0 / rc_lookahead=48 / rc=2pass / mbtree=1 / bitrate=6490 / ratetol=1.0 / qcomp=0.50 / qpmin=6 / qpmax=51 / qpstep=4 / cplxblur=20.0 / qblur=0.5 / vbv_maxrate=9735 / vbv_bufsize=12980 / nal_hrd=vbr / filler=0 / ip_ratio=1.40 / aq=1:1.00
    Default                     : Yes
    Forced                      : No

    Audio #1
    ID                          : 2
    Format                      : AAC LC SBR
    Format/Info                 : Advanced Audio Codec Low Complexity with Spectral Band Replication
    Commercial name             : HE-AAC
    Format settings             : Explicit
    Codec ID                    : A_AAC-2
    Duration                    : 24 min 43 s
    Bit rate                    : 96.0 kb/s
    Channel(s)                  : 2 channels
    Channel layout              : L R
    Sampling rate               : 48.0 kHz
    Frame rate                  : 23.438 FPS (2048 SPF)
    Compression mode            : Lossy
    Stream size                 : 17.0 MiB (1%)
    Title                       : Español latino [CinemaniaHDD]
    Language                    : Spanish
    Default                     : No
    Forced                      : No

    Audio #2
    ID                          : 3
    Format                      : AAC LC SBR
    Format/Info                 : Advanced Audio Codec Low Complexity with Spectral Band Replication
    Commercial name             : HE-AAC
    Format settings             : Explicit
    Codec ID                    : A_AAC-2
    Duration                    : 24 min 43 s
    Bit rate                    : 96.0 kb/s
    Channel(s)                  : 2 channels
    Channel layout              : L R
    Sampling rate               : 48.0 kHz
    Frame rate                  : 23.438 FPS (2048 SPF)
    Compression mode            : Lossy
    Stream size                 : 17.0 MiB (1%)
    Title                       : Japonés [CinemaniaHDD]
    Language                    : Japanese
    Default                     : No
    Forced                      : No

    Text #1
    ID                          : 4
    Format                      : UTF-8
    Codec ID                    : S_TEXT/UTF8
    Codec ID/Info               : UTF-8 Plain Text
    Duration                    : 24 min 14 s
    Bit rate                    : 73 b/s
    Count of elements           : 373
    Stream size                 : 13.0 KiB (0%)
    Title                       : Español latino [CinemaniaHDD]
    Language                    : Spanish
    Default                     : No
    Forced                      : No

    Text #2
    ID                          : 5
    Format                      : UTF-8
    Codec ID                    : S_TEXT/UTF8
    Codec ID/Info               : UTF-8 Plain Text
    Duration                    : 24 min 9 s
    Bit rate                    : 73 b/s
    Count of elements           : 373
    Stream size                 : 13.0 KiB (0%)
    Title                       : Inglés [CinemaniaHDD]
    Language                    : English
    Default                     : No
    Forced                      : No

  • Peso: 1.14 GiB c/u --- TOTAL 13.1 GiB en 12 capitulos.

Sinopsis

En la historia del manga, mercaderes y hombres de negocios apuestan grandes cantidades de dinero en combates entre hombres desarmados que ellos mismos contratan. El ganador se lo queda todo en estas competiciones Kengan que se originaron durante el periodo Edo. Los mercaderes usan las peleas como una forma de resolver sus disputas entre ellos. El misterioso y fuerte Oma Tokita, conocido como Ashura, se introduce en ese mundo. El presidente Hideki Nogi del Grupo Nogi es quien se encuentra a Ashura por primera vez. Cuando Ashura entra a ese mundo, comienzan a desarrollarse los eventos.

Ficha técnica

Video trailer de la película

Enlaces de descarga

Rip de Bluray

Descargar KENGAN ASHURA (2019) Temporada 1 NF WEB-DL 1080p Latino




Aportes de DPeliculasHDmega la pass es:dpeliculashdmega.org Aportes de CinemaniaHD la pass es:cinemaniahdd.com

Películas relacionadas

descargar KENGAN ASHURA (2019) Temporada 1 NF WEB-DL 1080p Latino WEBDL 1080p gratis, KENGAN ASHURA (2019) Temporada 1 NF WEB-DL 1080p Latino WEBDL mega 1 link, KENGAN ASHURA (2019) Temporada 1 NF WEB-DL 1080p Latino WEBDL pelicula completa, descargar KENGAN ASHURA (2019) Temporada 1 NF WEB-DL 1080p Latino WEBDL gratis en mega.

KENGAN ASHURA (2019) Temporada 1 NF WEB-DL 1080p Latino pelicula full hd, KENGAN ASHURA (2019) Temporada 1 NF WEB-DL 1080p Latino mega latino, KENGAN ASHURA (2019) Temporada 1 NF WEB-DL 1080p Latino 4k latino, KENGAN ASHURA (2019) Temporada 1 NF WEB-DL 1080p Latino pelicula completa, KENGAN ASHURA (2019) Temporada 1 NF WEB-DL 1080p Latino descargar gratis, descargar KENGAN ASHURA (2019) Temporada 1 NF WEB-DL 1080p Latino pelicula latino, KENGAN ASHURA (2019) Temporada 1 NF WEB-DL 1080p Latino 1 link mega, KENGAN ASHURA (2019) Temporada 1 NF WEB-DL 1080p Latino 1 link google drive, KENGAN ASHURA (2019) Temporada 1 NF WEB-DL 1080p Latino hd 1080p latino.
Comentarios 1
  • Christian - 29 mayo, 2020

    Gracias