Jurassic World el reino caído (2018) Full 1080p Latino [PLACEBO]

3.849 vistas
1 estrella2 estrellas3 estrellas4 estrellas5 estrellas (10 votos, promedio: 4,60 de 5)
Cargando…

Información de Jurassic World el reino caído (2018) Full 1080p Latino [PLACEBO]

Datos de la película

  • Calidad: Full 1080p
  • Audio: Español Latino DTS 5.1 BLURAY - Ingles DTS 5.1 BLURAY
  • Subtitulos: Español Latino PGS - Ingles PGS
  • Resolución: 1920x1080p
  • Formato: MKV
  • Codec: H.264
  • Encoder: Dracarys
  • Mediainfo: Clic para Mostrar Datos Ver
  • Format                                   : Matroska
    Format version                           : Version 4 / Version 2
    File size                                : 5.87 GiB
    Duration                                 : 2 h 8 min
    Overall bit rate                         : 6 546 kb/s
    Movie name                               : CinemaniaHDD.net
    Encoded date                             : UTC 2018-09-13 01:04:43 / UTC 2018-09-12T06:20:30Z
    Writing application                      : mkvmerge v15.0.0 ('Duel with the Devil') 64-bit
    Writing library                          : libebml v1.3.5 + libmatroska v1.4.5 / Lavf57.7.2

    Video
    ID                                       : 1
    Format                                   : AVC
    Format/Info                              : Advanced Video Codec
    Format profile                           : High@L4.1
    Format settings                          : CABAC / 4 Ref Frames
    Format settings, CABAC                   : Yes
    Format settings, RefFrames               : 4 frames
    Codec ID                                 : V_MPEG4/ISO/AVC
    Duration                                 : 2 h 8 min
    Bit rate                                 : 3 398 kb/s
    Width                                    : 1 920 pixels
    Height                                   : 1 080 pixels
    Display aspect ratio                     : 16:9
    Frame rate mode                          : Constant
    Frame rate                               : 23.976 (24000/1001) FPS
    Color space                              : YUV
    Chroma subsampling                       : 4:2:0
    Bit depth                                : 8 bits
    Scan type                                : Progressive
    Bits/(Pixel*Frame)                       : 0.068
    Stream size                              : 3.05 GiB (52%)
    Writing library                          : x264 core 148 r2708 86b7198
    Encoding settings                        : cabac=1 / ref=4 / deblock=1:0:0 / analyse=0x3:0x133 / me=tesa / subme=11 / psy=1 / psy_rd=1.00:0.00 / mixed_ref=1 / me_range=24 / chroma_me=1 / trellis=2 / 8x8dct=1 / cqm=0 / deadzone=21,11 / fast_pskip=0 / chroma_qp_offset=-2 / threads=34 / lookahead_threads=8 / sliced_threads=0 / nr=0 / decimate=1 / interlaced=0 / bluray_compat=0 / constrained_intra=0 / bframes=16 / b_pyramid=2 / b_adapt=2 / b_bias=0 / direct=3 / weightb=1 / open_gop=0 / weightp=2 / keyint=240 / keyint_min=24 / scenecut=40 / intra_refresh=0 / rc_lookahead=60 / rc=crf / mbtree=1 / crf=20.0 / qcomp=0.60 / qpmin=0 / qpmax=69 / qpstep=4 / vbv_maxrate=62500 / vbv_bufsize=78125 / crf_max=0.0 / nal_hrd=none / filler=0 / ip_ratio=1.40 / aq=1:1.00
    Language                                 : English
    Default                                  : Yes
    Forced                                   : No
    Color range                              : Limited
    Color primaries                          : BT.709
    Transfer characteristics                 : BT.709
    Matrix coefficients                      : BT.709
    Statistics Tags Issue                    : mkvmerge v15.0.0 ('Duel with the Devil') 64-bit 2018-09-13 01:04:43 / mkvmerge v15.0.0 ('Duel with the Devil') 64-bit 2018-09-13 01:04:43 / UTC 2018-09-12T06:20:30Z
    FromStats_BitRate                        : 3506146
    FromStats_Duration                       : 02:08:17.690000000
    FromStats_FrameCount                     : 184560
    FromStats_StreamSize                     : 3373653595

    Audio #1
    ID                                       : 2
    Format                                   : DTS
    Format/Info                              : Digital Theater Systems
    Mode                                     : 16
    Format settings, Endianness              : Big
    Codec ID                                 : A_DTS
    Duration                                 : 2 h 8 min
    Bit rate mode                            : Constant
    Bit rate                                 : 1 509 kb/s
    Channel(s)                               : 6 channels
    Channel positions                        : Front: L C R, Side: L R, LFE
    Sampling rate                            : 48.0 kHz
    Frame rate                               : 93.750 FPS (512 SPF)
    Bit depth                                : 24 bits
    Compression mode                         : Lossy
    Stream size                              : 1.35 GiB (23%)
    Language                                 : Spanish
    Default                                  : Yes
    Forced                                   : No
    Statistics Tags Issue                    : mkvmerge v15.0.0 ('Duel with the Devil') 64-bit 2018-09-13 01:04:43 / mkvmerge v15.0.0 ('Duel with the Devil') 64-bit 2018-09-13 01:04:43 / UTC 2018-09-12T06:20:30Z
    FromStats_BitRate                        : 1508999
    FromStats_Duration                       : 02:08:17.697000000
    FromStats_FrameCount                     : 721659
    FromStats_StreamSize                     : 1451977908

    Audio #2
    ID                                       : 3
    Format                                   : DTS
    Format/Info                              : Digital Theater Systems
    Mode                                     : 16
    Format settings, Endianness              : Big
    Codec ID                                 : A_DTS
    Duration                                 : 2 h 8 min
    Bit rate mode                            : Constant
    Bit rate                                 : 1 509 kb/s
    Channel(s)                               : 6 channels
    Channel positions                        : Front: L C R, Side: L R, LFE
    Sampling rate                            : 48.0 kHz
    Frame rate                               : 93.750 FPS (512 SPF)
    Bit depth                                : 24 bits
    Compression mode                         : Lossy
    Stream size                              : 1.35 GiB (23%)
    Language                                 : English
    Default                                  : No
    Forced                                   : No
    Statistics Tags Issue                    : mkvmerge v15.0.0 ('Duel with the Devil') 64-bit 2018-09-13 01:04:43 / mkvmerge v15.0.0 ('Duel with the Devil') 64-bit 2018-09-13 01:04:43 / UTC 2018-09-12T06:20:30Z
    FromStats_BitRate                        : 1508999
    FromStats_Duration                       : 02:08:17.697000000
    FromStats_FrameCount                     : 721659
    FromStats_StreamSize                     : 1451977908

    Text #1
    ID                                       : 4
    Format                                   : PGS
    Muxing mode                              : zlib
    Codec ID                                 : S_HDMV/PGS
    Codec ID/Info                            : Picture based subtitle format used on BDs/HD-DVDs
    Title                                    : Forzados
    Language                                 : Spanish
    Default                                  : Yes
    Forced                                   : Yes
    Statistics Tags Issue                    : mkvmerge v15.0.0 ('Duel with the Devil') 64-bit 2018-09-13 01:04:43 / mkvmerge v15.0.0 ('Duel with the Devil') 64-bit 2018-09-13 01:04:43 / UTC 2018-09-12T06:20:30Z
    FromStats_BitRate                        : 195
    FromStats_Duration                       : 02:06:27.372000000
    FromStats_FrameCount                     : 20
    FromStats_StreamSize                     : 185025

    Text #2
    ID                                       : 5
    Format                                   : PGS
    Muxing mode                              : zlib
    Codec ID                                 : S_HDMV/PGS
    Codec ID/Info                            : Picture based subtitle format used on BDs/HD-DVDs
    Language                                 : Spanish
    Default                                  : No
    Forced                                   : No
    Statistics Tags Issue                    : mkvmerge v15.0.0 ('Duel with the Devil') 64-bit 2018-09-13 01:04:43 / mkvmerge v15.0.0 ('Duel with the Devil') 64-bit 2018-09-13 01:04:43 / UTC 2018-09-12T06:20:30Z
    FromStats_BitRate                        : 25147
    FromStats_Duration                       : 02:06:27.372000000
    FromStats_FrameCount                     : 2590
    FromStats_StreamSize                     : 23850763

    Text #3
    ID                                       : 6
    Format                                   : PGS
    Muxing mode                              : zlib
    Codec ID                                 : S_HDMV/PGS
    Codec ID/Info                            : Picture based subtitle format used on BDs/HD-DVDs
    Language                                 : English
    Default                                  : No
    Forced                                   : No
    Statistics Tags Issue                    : mkvmerge v15.0.0 ('Duel with the Devil') 64-bit 2018-09-13 01:04:43 / mkvmerge v15.0.0 ('Duel with the Devil') 64-bit 2018-09-13 01:04:43 / UTC 2018-09-12T06:20:30Z
    FromStats_BitRate                        : 35346
    FromStats_Duration                       : 02:07:04.075000000
    FromStats_FrameCount                     : 3541
    FromStats_StreamSize                     : 33685556

    Menu
    00:00:00.000                             : :00:00:00.000
    00:07:13.224                             : :00:07:13.224
    00:12:01.554                             : :00:12:01.554
    00:17:17.745                             : :00:17:17.745
    00:21:17.193                             : :00:21:17.193
    00:28:49.811                             : :00:28:49.811
    00:35:04.769                             : :00:35:04.686
    00:40:51.574                             : :00:40:51.574
    00:46:32.498                             : :00:46:32.498
    00:52:04.997                             : :00:52:04.997
    01:00:59.197                             : :01:00:59.197
    01:06:50.256                             : :01:06:50.256
    01:11:07.638                             : :01:11:07.638
    01:17:21.095                             : :01:17:21.095
    01:26:55.210                             : :01:26:55.210
    01:33:01.576                             : :01:33:01.493
    01:42:55.878                             : :01:42:55.878
    01:50:01.553                             : :01:50:01.553
    01:54:56.306                             : :01:54:56.223
    01:58:37.986                             : :01:58:37.986

  • Peso: 5.87 GiB

Sinopsis

Tras cuatro años de abandono del complejo turístico Jurassic World, la isla Nublar solo está habitada por los dinosaurios supervivientes. Pero, cuando un volcán entra en erupción, Owen (Chris Pratt) y Claire (Bryce Dallas Howard) vuelven allí para rescatar a los dinosaurios de la extinción: el primero va en busca de Blue, el raptor que crio, mientras que la segunda quiere salvar a todos los ejemplares de las demás especies. Sin embargo, en las antiguas instalaciones del parque no estarán solos, ya que en ellas descubren una conspiración que pretende llevar al planeta de nuevo a la era prehistórica.

Ficha técnica

Video trailer de la película

Enlaces de descarga

Rip de Bluray

Descargar Jurassic World el reino caído (2018) Full 1080p Latino [PLACEBO]




Aportes de DPeliculasHDmega la pass es:dpeliculashdmega.org Aportes de CinemaniaHD la pass es:cinemaniahdd.com

Películas relacionadas

  • Matar o morir (2018) 1080p Subtitulado

    2018
    Matar o morir (2018) 1080p Subtitulado

    5.0 1h 41m 2018

    Descargar Matar o morir [Peppermint] (2018) 1080p Subtitulado, Mega, Google Drive. LRiley North (Jennifer...

    Director: Pierre Morel

    Género: Acción

    Actores: YaYa Gosselin

  • Ni en tus sueños (2010) Full 1080p Latino

    2010
    Ni en tus sueños (2010) Full 1080p Latino

    0.0 1h 44m 2010

    Descargar Ni en tus sueños (2010) Full 1080p Latino, Mega, Google Drive. Kirk (Jay Baruchel, "Tropic...

    Director: Richard L. Fox

    Género: Comedia

    Actores: Yan Xi

  • La Chica de La Capa Roja (2011) Full 1080p Latino

    2011
    La Chica de La Capa Roja (2011) Full 1080p Latino

    4.7 1h 40m 2011

    Descargar La Chica de La Capa Roja (2011) Full 1080p Latino, Mega, Google Drive. La joven Valerie se...

    Director: Kimi Webber

    Género: Fantasía

    Actores: Virginia Madsen

  • Soy el número cuatro (2011) 1080p Latino

    2011
    Soy el número cuatro (2011) 1080p Latino

    0.0 1h 42m 2011

    Descargar Soy el número cuatro (2011) 1080p Latino, Mega, Google Drive. Aunque tenga la apariencia de...

    Director: D.J. Caruso

    Género: Acción

    Actores: Zoe Simek

  • Soy el número cuatro (2011) Full 1080p Latino

    2011
    Soy el número cuatro (2011) Full 1080p Latino

    0.0 1h 42m 2011

    Descargar Soy el número cuatro (2011) Full 1080p Latino, Mega, Google Drive. Aunque tenga la apariencia...

    Director: D.J. Caruso

    Género: Acción

    Actores: Zoe Simek

Comentarios 4
  • Luis - 22 septiembre, 2018

    Que significa Placebo y en que se diferencia con full 1080p?

  • Gabriel - 13 septiembre, 2018

    Muchas gracias, Excelente Calidad

  • Jonna - 13 septiembre, 2018

    Muchas gracias por traerla en PLACEBO; Saludos 🙂

  • JEFF - 13 septiembre, 2018

    QUE SIGNIFICA PLACEBO