Jurassic World el reino caído (2018) 4K HDR Latino

4.514 vistas
1 estrella2 estrellas3 estrellas4 estrellas5 estrellas (10 votos, promedio: 4,90 de 5)
Cargando…

Información de Jurassic World el reino caído (2018) 4K HDR Latino

Datos de la película

  • Calidad: 4K HDR
  • Audio: Se especifica abajo de la Sinopsis
  • Subtitulos: Español Latino PGS - Ingles PGS
  • Resolución: 3840x1608p
  • Formato: MKV
  • Codec: H.265
  • Encoder: Dracarys
  • Mediainfo: Clic para Mostrar Datos Ver
  • Format                                   : Matroska
    Format version                           : Version 4 / Version 2
    File size                                : 12.4 GiB
    Duration                                 : 2 h 8 min
    Overall bit rate                         : 13.9 Mb/s
    Movie name                               : CinemaniaHDD.net
    Encoded date                             : UTC 2018-09-10 02:03:56
    Writing application                      : mkvmerge v15.0.0 ('Duel with the Devil') 64-bit
    Writing library                          : libebml v1.3.5 + libmatroska v1.4.5

    Video
    ID                                       : 1
    Format                                   : HEVC
    Format/Info                              : High Efficiency Video Coding
    Format profile                           : Main 10@L5.1@High
    Codec ID                                 : V_MPEGH/ISO/HEVC
    Duration                                 : 2 h 8 min
    Bit rate                                 : 6 914 kb/s
    Width                                    : 3 840 pixels
    Height                                   : 1 608 pixels
    Display aspect ratio                     : 2.40:1
    Frame rate mode                          : Constant
    Frame rate                               : 23.976 (24000/1001) FPS
    Color space                              : YUV
    Chroma subsampling                       : 4:2:0 (Type 2)
    Bit depth                                : 10 bits
    Bits/(Pixel*Frame)                       : 0.047
    Stream size                              : 6.20 GiB (50%)
    Title                                    : Jurassic World el reino caído (2018) 4K HDR Latino
    Writing library                          : x265 2.8+66-88ee12651e30:[Windows][GCC 6.3.0][64 bit] 10bit
    Encoding settings                        : cpuid=1111039 / frame-threads=4 / numa-pools=20 / wpp / no-pmode / no-pme / no-psnr / no-ssim / log-level=2 / input-csp=1 / input-res=3840x1608 / interlace=0 / total-frames=184560 / level-idc=51 / high-tier=1 / uhd-bd=0 / ref=4 / no-allow-non-conformance / repeat-headers / annexb / aud / hrd / info / hash=0 / no-temporal-layers / no-open-gop / min-keyint=1 / keyint=24 / gop-lookahead=0 / bframes=4 / b-adapt=2 / b-pyramid / bframe-bias=0 / rc-lookahead=25 / lookahead-slices=4 / scenecut=40 / radl=0 / no-intra-refresh / ctu=64 / min-cu-size=8 / rect / no-amp / max-tu-size=32 / tu-inter-depth=1 / tu-intra-depth=1 / limit-tu=0 / rdoq-level=2 / dynamic-rd=0.00 / no-ssim-rd / signhide / no-tskip / nr-intra=0 / nr-inter=0 / no-constrained-intra / no-strong-intra-smoothing / max-merge=3 / limit-refs=3 / limit-modes / me=3 / subme=3 / merange=57 / temporal-mvp / weightp / no-weightb / no-analyze-src-pics / deblock=-3:-3 / no-sao / no-sao-non-deblock / rd=4 / no-early-skip / rskip / no-fast-intra / no-tskip-fast / no-cu-lossless / no-b-intra / no-splitrd-skip / rdpenalty=0 / psy-rd=2.00 / psy-rdoq=1.00 / no-rd-refine / no-lossless / cbqpoffs=0 / crqpoffs=0 / rc=crf / crf=17.0 / qcomp=0.60 / qpstep=4 / stats-write=0 / stats-read=0 / vbv-maxrate=160000 / vbv-bufsize=160000 / vbv-init=0.9 / crf-max=0.0 / crf-min=0.0 / ipratio=1.40 / pbratio=1.30 / aq-mode=1 / aq-strength=1.00 / cutree / zone-count=0 / no-strict-cbr / qg-size=32 / no-rc-grain / qpmax=69 / qpmin=0 / no-const-vbv / sar=1 / overscan=0 / videoformat=5 / range=0 / colorprim=9 / transfer=16 / colormatrix=9 / chromaloc=1 / chromaloc-top=2 / chromaloc-bottom=2 / display-window=0 / master-display=G(13250,34500)B(7500,3000)R(34000,16000)WP(15635,16450)L(10000000,1) / max-cll=1000,153 / min-luma=0 / max-luma=1023 / log2-max-poc-lsb=8 / vui-timing-info / vui-hrd-info / slices=1 / no-opt-qp-pps / no-opt-ref-list-length-pps / no-multi-pass-opt-rps / scenecut-bias=0.05 / no-opt-cu-delta-qp / no-aq-motion / hdr / hdr-opt / no-dhdr10-opt / no-idr-recovery-sei / analysis-reuse-level=5 / scale-factor=0 / refine-intra=0 / refine-inter=0 / refine-mv=0 / no-limit-sao / ctu-info=0 / no-lowpass-dct / refine-mv-type=0 / copy-pic=1 / max-ausize-factor=1.0 / no-dynamic-refine / no-single-sei
    Language                                 : English
    Default                                  : Yes
    Forced                                   : No
    Color range                              : Limited
    Color primaries                          : BT.2020
    Transfer characteristics                 : PQ
    Matrix coefficients                      : BT.2020 non-constant
    Mastering display color primaries        : R: x=0.680000 y=0.320000, G: x=0.265000 y=0.690000, B: x=0.150000 y=0.060000, White point: x=0.312700 y=0.329000
    Mastering display luminance              : min: 0.0001 cd/m2, max: 1000.0000 cd/m2
    Maximum Content Light Level              : 1000 cd/m2
    Maximum Frame-Average Light Level        : 153 cd/m2

    Audio #1
    ID                                       : 2
    Format                                   : AC-3
    Format/Info                              : Audio Coding 3
    Format settings, Endianness              : Big
    Codec ID                                 : A_AC3
    Duration                                 : 2 h 8 min
    Bit rate mode                            : Constant
    Bit rate                                 : 640 kb/s
    Channel(s)                               : 6 channels
    Channel positions                        : Front: L C R, Side: L R, LFE
    Sampling rate                            : 48.0 kHz
    Frame rate                               : 31.250 FPS (1536 SPF)
    Bit depth                                : 16 bits
    Compression mode                         : Lossy
    Stream size                              : 587 MiB (5%)
    Title                                    : AC3 5.1
    Language                                 : Spanish
    Service kind                             : Complete Main
    Default                                  : No
    Forced                                   : No

    Audio #2
    ID                                       : 3
    Format                                   : DTS
    Format/Info                              : Digital Theater Systems
    Format profile                           : HRA / Core
    Mode                                     : 16
    Format settings, Endianness              : Big
    Codec ID                                 : A_DTS
    Duration                                 : 2 h 8 min
    Bit rate mode                            : Constant
    Bit rate                                 : 2 046 kb/s / 1 509 kb/s
    Channel(s)                               : 8 channels / 6 channels
    Channel positions                        : Front: L C R, Side: L R, Back: L R, LFE / Front: L C R, Side: L R, LFE
    Sampling rate                            : 48.0 kHz
    Frame rate                               : 93.750 FPS (512 SPF)
    Bit depth                                : 24 bits
    Compression mode                         : Lossy
    Stream size                              : 1.83 GiB (15%)
    Title                                    : DTS HD HRA 7.1
    Language                                 : Spanish
    Default                                  : Yes
    Forced                                   : No

    Audio #3
    ID                                       : 4
    Format                                   : DTS
    Format/Info                              : Digital Theater Systems
    Format profile                           : X / MA / Core
    Mode                                     : 16
    Format settings, Endianness              : Big
    Codec ID                                 : A_DTS
    Duration                                 : 2 h 8 min
    Bit rate mode                            : Variable / Variable / Constant
    Bit rate                                 : 4 231 kb/s / 4 231 kb/s / 1 509 kb/s
    Channel(s)                               : Object Based / 8 channels / 6 channels
    Channel positions                        : Object Based / Front: L C R, Side: L R, Back: L R, LFE / Front: L C R, Side: L R, LFE
    Sampling rate                            :  / 48.0 kHz / 48.0 kHz
    Frame rate                               : 93.750 FPS (512 SPF)
    Bit depth                                :  / 24 bits / 24 bits
    Compression mode                         :  / Lossless / Lossy
    Stream size                              : 3.79 GiB (31%)
    Title                                    : DTS X 7.1
    Language                                 : English
    Default                                  : No
    Forced                                   : No

    Text #1
    ID                                       : 5
    Format                                   : PGS
    Muxing mode                              : zlib
    Codec ID                                 : S_HDMV/PGS
    Codec ID/Info                            : Picture based subtitle format used on BDs/HD-DVDs
    Duration                                 : 2 h 7 min
    Bit rate                                 : 34.7 kb/s
    Count of elements                        : 3540
    Stream size                              : 31.5 MiB (0%)
    Language                                 : English
    Default                                  : No
    Forced                                   : No

    Text #2
    ID                                       : 6
    Format                                   : PGS
    Muxing mode                              : zlib
    Codec ID                                 : S_HDMV/PGS
    Codec ID/Info                            : Picture based subtitle format used on BDs/HD-DVDs
    Duration                                 : 2 h 6 min
    Bit rate                                 : 25.1 kb/s
    Count of elements                        : 2590
    Stream size                              : 22.7 MiB (0%)
    Language                                 : Spanish
    Default                                  : No
    Forced                                   : No

    Text #3
    ID                                       : 7
    Format                                   : PGS
    Muxing mode                              : zlib
    Codec ID                                 : S_HDMV/PGS
    Codec ID/Info                            : Picture based subtitle format used on BDs/HD-DVDs
    Duration                                 : 2 h 6 min
    Bit rate                                 : 195 b/s
    Count of elements                        : 20
    Stream size                              : 181 KiB (0%)
    Title                                    : Forzados
    Language                                 : Spanish
    Default                                  : Yes
    Forced                                   : Yes

    Menu
    00:00:00.000                             : :00:00:00.000
    00:07:13.224                             : :00:07:13.224
    00:12:01.554                             : :00:12:01.554
    00:17:17.745                             : :00:17:17.745
    00:21:17.193                             : :00:21:17.193
    00:28:49.811                             : :00:28:49.811
    00:35:04.686                             : :00:35:04.686
    00:40:51.574                             : :00:40:51.574
    00:46:32.498                             : :00:46:32.498
    00:52:04.997                             : :00:52:04.997
    01:00:59.197                             : :01:00:59.197
    01:06:50.256                             : :01:06:50.256
    01:11:07.638                             : :01:11:07.638
    01:17:21.095                             : :01:17:21.095
    01:26:55.210                             : :01:26:55.210
    01:33:01.493                             : :01:33:01.493
    01:42:55.878                             : :01:42:55.878
    01:50:01.553                             : :01:50:01.553
    01:54:56.223                             : :01:54:56.223
    01:58:37.986                             : :01:58:37.986

  • Peso: 12.4 GiB

Sinopsis

Tras cuatro años de abandono del complejo turístico Jurassic World, la isla Nublar solo está habitada por los dinosaurios supervivientes. Pero, cuando un volcán entra en erupción, Owen (Chris Pratt) y Claire (Bryce Dallas Howard) vuelven allí para rescatar a los dinosaurios de la extinción: el primero va en busca de Blue, el raptor que crio, mientras que la segunda quiere salvar a todos los ejemplares de las demás especies. Sin embargo, en las antiguas instalaciones del parque no estarán solos, ya que en ellas descubren una conspiración que pretende llevar al planeta de nuevo a la era prehistórica.

 

Latino: DTS HD HRA 7.1 – AC3 5.1  —  Ingles: DTS X 7.1

Ficha técnica

Video trailer de la película

Enlaces de descarga

Rip de Bluray

Descargar Jurassic World el reino caído (2018) 4K HDR Latino




Aportes de DPeliculasHDmega la pass es:dpeliculashdmega.org Aportes de CinemaniaHD la pass es:cinemaniahdd.com

Películas relacionadas

  • Mision: Imposible 2 (2000) Full 1080p Latino

    2000
    Mision: Imposible 2 (2000) Full 1080p Latino

    3.0 2h 3m 2000

    Descargar Mision: Imposible 2 (2000) Full 1080p Latino, Mega, Google Drive. El agente especial Ethan...

    Director: William H. Burton Jr.

    Género: Acción

    Actores: William Mapother

  • Mision: Imposible 2 (2000) 1080p Latino

    2000
    Mision: Imposible 2 (2000) 1080p Latino

    1.0 2h 3m 2000

    Descargar Mision: Imposible 2 (2000) 1080p Latino, Mega, Google Drive. El agente especial Ethan Hunt...

    Director: William H. Burton Jr.

    Género: Acción

    Actores: William Mapother

  • Mision: Imposible (1996) Full 1080p Latino

    1996
    Mision: Imposible (1996) Full 1080p Latino

    3.7 1h 50m 1996

    Mission: Impossible (1996) Full 1080p Latino, Mega, Google Drive. Ethan Hunt es un superespía capaz...

    Director: Nick Moore

    Género: Acción

    Actores: Ving Rhames

  • Mision: Imposible (1996) 1080p Latino

    1996
    Mision: Imposible (1996) 1080p Latino

    1.0 1h 50m 1996

    Mission: Impossible (1996) 1080p Latino, Mega, Google Drive. Ethan Hunt es un superespía capaz de resolver...

    Director: Nick Moore

    Género: Acción

    Actores: Ving Rhames

  • Los increíbles 2 (2018) Full 1080p Latino

    2018
    Los increíbles 2 (2018) Full 1080p Latino

    4.4 1h 58m 2018

    Helen tiene que liderar una campaña para que los superhéroes regresen, mientras Bob vive su vida "normal"...

    Director: Seong-Young Kim

    Género: Acción

    Actores: Usher

Comentarios 10
  • Tomasa Pushcar - 26 octubre, 2018

    thanks for sharing this information..have shared this link with others keep posting such information..

  • marcko - 13 septiembre, 2018

    Trabajos inigualables mil gracias por compartir amigos… saludos.

  • Matias - 11 septiembre, 2018

    Una pregunta para cuándo la versión plateada ??? Gracias…

  • ocpgaiden - 11 septiembre, 2018

    Gracias por El reino caido de Jurassic World, esperando la version plateada tambien, saludos

  • Roro - 10 septiembre, 2018

    Gracias ❤️, pero que significa DTS HD HRA y DTS X ??

    • Dracarys - 11 septiembre, 2018

      son los formatos de los audios

  • Geronimo - 10 septiembre, 2018

    Y yo aqui esperando aun la version plateada

  • Faruk - 10 septiembre, 2018

    Y yo aqui esperando la version plateada aun.. primera vez que veo q suben una version 4K antes que la plateada!

    • Jonathan - 11 septiembre, 2018

      Yo igual pero al parecer ésta y la de HANSOLO no van a tener plateada :/ ya que están en 1080p pero esperemos que nos confirme algún admin 🙁

      • Dracarys - 12 septiembre, 2018

        cuando este el BH50 estaran en plateada