James Bond You Only Live Twice (1967) Full 1080p Latino

430 vistas
1 estrella2 estrellas3 estrellas4 estrellas5 estrellas (Ninguna valoración todavía)
Cargando…

Información de James Bond You Only Live Twice (1967) Full 1080p Latino

Datos de la película

  • Calidad: Full 1080p
  • Audio: Español Latino AC3 5.1 BLURAY - Ingles DTS 5.1 BLURAY
  • Subtitulos: Español Latino PGS - Ingles PGS
  • Resolución: 1920x1080p
  • Formato: MKV
  • Codec: H.264
  • Encoder: Dracarys
  • Mediainfo: Clic para Mostrar Datos Ver
  • Format                                   : Matroska
    Format version                           : Version 4 / Version 2
    File size                                : 11.6 GiB
    Duration                                 : 1 h 56 min
    Overall bit rate                         : 14.1 Mb/s
    Movie name                               : CinemaniaHDD.net
    Encoded date                             : UTC 2018-07-19 23:16:54 / UTC 2018-07-15T09:21:06Z
    Writing application                      : mkvmerge v15.0.0 ('Duel with the Devil') 64-bit
    Writing library                          : libebml v1.3.5 + libmatroska v1.4.5 / Lavf57.7.2

    Video
    ID                                       : 1
    Format                                   : AVC
    Format/Info                              : Advanced Video Codec
    Format profile                           : [email protected]
    Format settings                          : CABAC / 4 Ref Frames
    Format settings, CABAC                   : Yes
    Format settings, RefFrames               : 4 frames
    Codec ID                                 : V_MPEG4/ISO/AVC
    Duration                                 : 1 h 56 min
    Bit rate                                 : 11.9 Mb/s
    Width                                    : 1 920 pixels
    Height                                   : 1 080 pixels
    Display aspect ratio                     : 16:9
    Frame rate mode                          : Constant
    Frame rate                               : 23.976 (24000/1001) FPS
    Color space                              : YUV
    Chroma subsampling                       : 4:2:0
    Bit depth                                : 8 bits
    Scan type                                : Progressive
    Bits/(Pixel*Frame)                       : 0.240
    Stream size                              : 9.73 GiB (84%)
    Title                                    : James Bond You Only Live Twice (1967) Full 1080p Latino
    Writing library                          : x264 core 148 r2708 86b7198
    Encoding settings                        : cabac=1 / ref=4 / deblock=1:0:0 / analyse=0x3:0x133 / me=esa / subme=10 / psy=1 / psy_rd=1.00:0.00 / mixed_ref=1 / me_range=24 / chroma_me=1 / trellis=2 / 8x8dct=1 / cqm=0 / deadzone=21,11 / fast_pskip=1 / chroma_qp_offset=-2 / threads=34 / lookahead_threads=5 / sliced_threads=0 / nr=0 / decimate=1 / interlaced=0 / bluray_compat=0 / constrained_intra=0 / bframes=8 / b_pyramid=2 / b_adapt=2 / b_bias=0 / direct=3 / weightb=1 / open_gop=0 / weightp=2 / keyint=240 / keyint_min=24 / scenecut=40 / intra_refresh=0 / rc_lookahead=60 / rc=crf / mbtree=1 / crf=20.0 / qcomp=0.60 / qpmin=0 / qpmax=69 / qpstep=4 / vbv_maxrate=62500 / vbv_bufsize=78125 / crf_max=0.0 / nal_hrd=none / filler=0 / ip_ratio=1.40 / aq=1:1.00
    Language                                 : English
    Default                                  : Yes
    Forced                                   : No
    Color range                              : Limited
    Color primaries                          : BT.709
    Transfer characteristics                 : BT.709
    Matrix coefficients                      : BT.709
    Statistics Tags Issue                    : mkvmerge v15.0.0 ('Duel with the Devil') 64-bit 2018-07-19 23:16:54 / mkvmerge v15.0.0 ('Duel with the Devil') 64-bit 2018-07-19 23:16:54 / UTC 2018-07-15T09:21:06Z
    FromStats_BitRate                        : 12156565
    FromStats_Duration                       : 01:56:58.220000000
    FromStats_FrameCount                     : 168269
    FromStats_StreamSize                     : 10664681780

    Audio #1
    ID                                       : 2
    Format                                   : AC-3
    Format/Info                              : Audio Coding 3
    Format settings, Endianness              : Big
    Codec ID                                 : A_AC3
    Duration                                 : 1 h 56 min
    Bit rate mode                            : Constant
    Bit rate                                 : 448 kb/s
    Channel(s)                               : 6 channels
    Channel positions                        : Front: L C R, Side: L R, LFE
    Sampling rate                            : 48.0 kHz
    Frame rate                               : 31.250 FPS (1536 SPF)
    Bit depth                                : 16 bits
    Compression mode                         : Lossy
    Stream size                              : 375 MiB (3%)
    Language                                 : Spanish
    Service kind                             : Complete Main
    Default                                  : Yes
    Forced                                   : No
    Statistics Tags Issue                    : mkvmerge v15.0.0 ('Duel with the Devil') 64-bit 2018-07-19 23:16:54 / mkvmerge v15.0.0 ('Duel with the Devil') 64-bit 2018-07-19 23:16:54 / UTC 2018-07-15T09:21:06Z
    FromStats_BitRate                        : 448000
    FromStats_Duration                       : 01:56:58.272000000
    FromStats_FrameCount                     : 219321
    FromStats_StreamSize                     : 393023232

    Audio #2
    ID                                       : 3
    Format                                   : DTS
    Format/Info                              : Digital Theater Systems
    Mode                                     : 16
    Format settings, Endianness              : Big
    Codec ID                                 : A_DTS
    Duration                                 : 1 h 56 min
    Bit rate mode                            : Constant
    Bit rate                                 : 1 509 kb/s
    Channel(s)                               : 6 channels
    Channel positions                        : Front: L C R, Side: L R, LFE
    Sampling rate                            : 48.0 kHz
    Frame rate                               : 93.750 FPS (512 SPF)
    Bit depth                                : 24 bits
    Compression mode                         : Lossy
    Stream size                              : 1.23 GiB (11%)
    Language                                 : English
    Default                                  : No
    Forced                                   : No
    Statistics Tags Issue                    : mkvmerge v15.0.0 ('Duel with the Devil') 64-bit 2018-07-19 23:16:54 / mkvmerge v15.0.0 ('Duel with the Devil') 64-bit 2018-07-19 23:16:54 / UTC 2018-07-15T09:21:06Z
    FromStats_BitRate                        : 1508999
    FromStats_Duration                       : 01:56:58.251000000
    FromStats_FrameCount                     : 657961
    FromStats_StreamSize                     : 1323817532

    Text #1
    ID                                       : 4
    Format                                   : PGS
    Muxing mode                              : zlib
    Codec ID                                 : S_HDMV/PGS
    Codec ID/Info                            : Picture based subtitle format used on BDs/HD-DVDs
    Language                                 : English
    Default                                  : No
    Forced                                   : No
    Statistics Tags Issue                    : mkvmerge v15.0.0 ('Duel with the Devil') 64-bit 2018-07-19 23:16:54 / mkvmerge v15.0.0 ('Duel with the Devil') 64-bit 2018-07-19 23:16:54 / UTC 2018-07-15T09:21:06Z
    FromStats_BitRate                        : 24197
    FromStats_Duration                       : 01:56:27.106000000
    FromStats_FrameCount                     : 2002
    FromStats_StreamSize                     : 21133867

    Text #2
    ID                                       : 5
    Format                                   : PGS
    Muxing mode                              : zlib
    Codec ID                                 : S_HDMV/PGS
    Codec ID/Info                            : Picture based subtitle format used on BDs/HD-DVDs
    Language                                 : Spanish
    Default                                  : No
    Forced                                   : No
    Statistics Tags Issue                    : mkvmerge v15.0.0 ('Duel with the Devil') 64-bit 2018-07-19 23:16:54 / mkvmerge v15.0.0 ('Duel with the Devil') 64-bit 2018-07-19 23:16:54 / UTC 2018-07-15T09:21:06Z
    FromStats_BitRate                        : 24080
    FromStats_Duration                       : 01:56:08.211000000
    FromStats_FrameCount                     : 1682
    FromStats_StreamSize                     : 20974671

    Text #3
    ID                                       : 6
    Format                                   : PGS
    Muxing mode                              : zlib
    Codec ID                                 : S_HDMV/PGS
    Codec ID/Info                            : Picture based subtitle format used on BDs/HD-DVDs
    Title                                    : Forzados
    Language                                 : Spanish
    Default                                  : Yes
    Forced                                   : Yes
    Statistics Tags Issue                    : mkvmerge v15.0.0 ('Duel with the Devil') 64-bit 2018-07-19 23:16:54 / mkvmerge v15.0.0 ('Duel with the Devil') 64-bit 2018-07-19 23:16:54 / UTC 2018-07-15T09:21:06Z
    FromStats_BitRate                        : 64889
    FromStats_Duration                       : 01:56:26.562000000
    FromStats_FrameCount                     : 4310
    FromStats_StreamSize                     : 56669177

    Menu
    00:00:00.000                             : :Chapter 1
    00:05:02.093                             : :Chapter 2
    00:06:10.537                             : :Chapter 3
    00:08:54.075                             : :Chapter 4
    00:11:49.375                             : :Chapter 5
    00:15:23.089                             : :Chapter 6
    00:19:25.915                             : :Chapter 7
    00:24:18.916                             : :Chapter 8
    00:28:19.656                             : :Chapter 9
    00:31:28.720                             : :Chapter 10
    00:33:09.112                             : :Chapter 11
    00:36:14.589                             : :Chapter 12
    00:40:48.071                             : :Chapter 13
    00:44:17.822                             : :Chapter 14
    00:46:59.817                             : :Chapter 15
    00:51:13.779                             : :Chapter 16
    00:54:37.274                             : :Chapter 17
    00:58:58.702                             : :Chapter 18
    01:03:27.846                             : :Chapter 19
    01:09:01.971                             : :Chapter 20
    01:12:26.717                             : :Chapter 21
    01:14:07.068                             : :Chapter 22
    01:17:33.649                             : :Chapter 23
    01:20:25.904                             : :Chapter 24
    01:24:25.686                             : :Chapter 25
    01:28:42.734                             : :Chapter 26
    01:34:54.647                             : :Chapter 27
    01:35:49.994                             : :Chapter 28
    01:38:13.179                             : :Chapter 29
    01:44:26.302                             : :Chapter 30
    01:48:19.535                             : :Chapter 31
    01:53:25.507                             : :Chapter 32

  • Peso: 11.6 GiB

Sinopsis

Dos naves espaciales, una norteamericana y otra rusa, han sido secuestradas en la órbita terrestre. Todo depende ahora de la intervención del Agente 007 -Sean Connery- para prevenir una guerra nuclear entre las dos superpotencias. Su misión consistirá en viajar hasta Japón y desenmascarar a la peligrosa organización Spectra y a su diabólico líder, Ernest Stavro Blofeld -Donald Pleasence.

Ficha técnica

Video trailer de la película

Enlaces de descarga

Rip de Bluray

Descargar James Bond You Only Live Twice (1967) Full 1080p Latino




Aportes de DPeliculasHDmega la pass es:dpeliculashdmega.org Aportes de CinemaniaHD la pass es:cinemaniahdd.com

Películas relacionadas

  • Poseído (2018) WEB-DL 1080p Latino

    2018
    Poseído (2018) WEB-DL 1080p Latino

    0.0 1h 27m 2018

    Mary está embarazada de gemelos, pero, en el parto, uno de los bebés muere. Diagnosticada con depresión...

    Director: Brandon Christensen

    Género: Suspense

    Actores: Sheila McCarthy

  • Painless (2017) WEB-DL 1080p Latino

    2017
    Painless (2017) WEB-DL 1080p Latino

    0.0 1h 21m 2017

    Henry Long busca desesperadamente una cura para la afección que lo deja incapaz de sentir dolor físico.

    Director: Jordan Horowitz

    Género: Drama

    Actores: Valeria Sistrunk

  • Distorted (2018) 1080p Latino

    2018
    Distorted (2018) 1080p Latino

    5.0 1h 30m 2018

    Ricci interpreta a una joven con trastorno bipolar que empieza a sospechar que el propietario de un moderno...

    Director: Rob W. King

    Género: Acción

    Actores: Zan Klein

  • El rey de las drogas (2018) WEB-DL NF 1080p Latino

    2018
    El rey de las drogas (2018) WEB-DL NF 1080p Latino

    0.0 2h 19m 2018

    Lee Doo-sam es un pequeño contrabandista de tiempo en Busan, Corea. Un día, ayuda a la mafia a contrabandear...

    Director: Woo Min-ho

    Género: Acción

    Actores: You Jae-myeong

Comentarios 0