James Bond Tomorrow Never Dies (1997) Full 1080p Latino

564 vistas
1 estrella2 estrellas3 estrellas4 estrellas5 estrellas (Ninguna valoración todavía)
Cargando…

Información de James Bond Tomorrow Never Dies (1997) Full 1080p Latino

Datos de la película

  • Calidad: Full 1080p
  • Audio: Español Latino AC3 5.1 BLURAY - Ingles DTS 5.1 BLURAY
  • Subtitulos: Español Latino PGS - Ingles PGS
  • Resolución: 1920x108p
  • Formato: MKV
  • Codec: H.264
  • Encoder: Dracarys
  • Mediainfo: Clic para Mostrar Datos Ver
  • Format                                   : Matroska
    Format version                           : Version 4 / Version 2
    File size                                : 8.10 GiB
    Duration                                 : 1 h 59 min
    Overall bit rate                         : 9 717 kb/s
    Movie name                               : CinemaniaHDD.net
    Encoded date                             : UTC 2018-08-01 19:47:42 / UTC 2018-07-19T05:22:40Z
    Writing application                      : mkvmerge v15.0.0 ('Duel with the Devil') 64-bit
    Writing library                          : libebml v1.3.5 + libmatroska v1.4.5 / Lavf57.7.2

    Video
    ID                                       : 1
    Format                                   : AVC
    Format/Info                              : Advanced Video Codec
    Format profile                           : High@L4.1
    Format settings                          : CABAC / 4 Ref Frames
    Format settings, CABAC                   : Yes
    Format settings, RefFrames               : 4 frames
    Codec ID                                 : V_MPEG4/ISO/AVC
    Duration                                 : 1 h 59 min
    Bit rate                                 : 7 567 kb/s
    Width                                    : 1 920 pixels
    Height                                   : 1 080 pixels
    Display aspect ratio                     : 16:9
    Frame rate mode                          : Constant
    Frame rate                               : 23.976 (24000/1001) FPS
    Color space                              : YUV
    Chroma subsampling                       : 4:2:0
    Bit depth                                : 8 bits
    Scan type                                : Progressive
    Bits/(Pixel*Frame)                       : 0.152
    Stream size                              : 6.31 GiB (78%)
    Title                                    : James Bond Tomorrow Never Dies (1997) Full 1080p Latino
    Writing library                          : x264 core 148 r2708 86b7198
    Encoding settings                        : cabac=1 / ref=4 / deblock=1:0:0 / analyse=0x3:0x133 / me=esa / subme=10 / psy=1 / psy_rd=1.00:0.00 / mixed_ref=1 / me_range=24 / chroma_me=1 / trellis=2 / 8x8dct=1 / cqm=0 / deadzone=21,11 / fast_pskip=1 / chroma_qp_offset=-2 / threads=34 / lookahead_threads=5 / sliced_threads=0 / nr=0 / decimate=1 / interlaced=0 / bluray_compat=0 / constrained_intra=0 / bframes=8 / b_pyramid=2 / b_adapt=2 / b_bias=0 / direct=3 / weightb=1 / open_gop=0 / weightp=2 / keyint=240 / keyint_min=24 / scenecut=40 / intra_refresh=0 / rc_lookahead=60 / rc=crf / mbtree=1 / crf=20.0 / qcomp=0.60 / qpmin=0 / qpmax=69 / qpstep=4 / vbv_maxrate=62500 / vbv_bufsize=78125 / crf_max=0.0 / nal_hrd=none / filler=0 / ip_ratio=1.40 / aq=1:1.00
    Language                                 : English
    Default                                  : Yes
    Forced                                   : No
    Color range                              : Limited
    Color primaries                          : BT.709
    Transfer characteristics                 : BT.709
    Matrix coefficients                      : BT.709
    Statistics Tags Issue                    : mkvmerge v15.0.0 ('Duel with the Devil') 64-bit 2018-08-01 19:47:42 / mkvmerge v15.0.0 ('Duel with the Devil') 64-bit 2018-08-01 19:47:42 / UTC 2018-07-19T05:22:40Z
    FromStats_BitRate                        : 7725976
    FromStats_Duration                       : 01:59:20.529000000
    FromStats_FrameCount                     : 171681
    FromStats_StreamSize                     : 6915260177

    Audio #1
    ID                                       : 2
    Format                                   : AC-3
    Format/Info                              : Audio Coding 3
    Format settings, Endianness              : Big
    Codec ID                                 : A_AC3
    Duration                                 : 1 h 59 min
    Bit rate mode                            : Constant
    Bit rate                                 : 448 kb/s
    Channel(s)                               : 6 channels
    Channel positions                        : Front: L C R, Side: L R, LFE
    Sampling rate                            : 48.0 kHz
    Frame rate                               : 31.250 FPS (1536 SPF)
    Bit depth                                : 16 bits
    Compression mode                         : Lossy
    Stream size                              : 382 MiB (5%)
    Language                                 : Spanish
    Service kind                             : Complete Main
    Default                                  : Yes
    Forced                                   : No
    Statistics Tags Issue                    : mkvmerge v15.0.0 ('Duel with the Devil') 64-bit 2018-08-01 19:47:42 / mkvmerge v15.0.0 ('Duel with the Devil') 64-bit 2018-08-01 19:47:42 / UTC 2018-07-19T05:22:40Z
    FromStats_BitRate                        : 448000
    FromStats_Duration                       : 01:59:20.544000000
    FromStats_FrameCount                     : 223767
    FromStats_StreamSize                     : 400990464

    Audio #2
    ID                                       : 3
    Format                                   : DTS
    Format/Info                              : Digital Theater Systems
    Mode                                     : 16
    Format settings, Endianness              : Big
    Codec ID                                 : A_DTS
    Duration                                 : 1 h 59 min
    Bit rate mode                            : Constant
    Bit rate                                 : 1 509 kb/s
    Channel(s)                               : 6 channels
    Channel positions                        : Front: L C R, Side: L R, LFE
    Sampling rate                            : 48.0 kHz
    Frame rate                               : 93.750 FPS (512 SPF)
    Bit depth                                : 24 bits
    Compression mode                         : Lossy
    Stream size                              : 1.26 GiB (16%)
    Language                                 : English
    Default                                  : No
    Forced                                   : No
    Statistics Tags Issue                    : mkvmerge v15.0.0 ('Duel with the Devil') 64-bit 2018-08-01 19:47:42 / mkvmerge v15.0.0 ('Duel with the Devil') 64-bit 2018-08-01 19:47:42 / UTC 2018-07-19T05:22:40Z
    FromStats_BitRate                        : 1508999
    FromStats_Duration                       : 01:59:20.523000000
    FromStats_FrameCount                     : 671299
    FromStats_StreamSize                     : 1350653588

    Text #1
    ID                                       : 4
    Format                                   : PGS
    Muxing mode                              : zlib
    Codec ID                                 : S_HDMV/PGS
    Codec ID/Info                            : Picture based subtitle format used on BDs/HD-DVDs
    Language                                 : English
    Default                                  : No
    Forced                                   : No
    Statistics Tags Issue                    : mkvmerge v15.0.0 ('Duel with the Devil') 64-bit 2018-08-01 19:47:42 / mkvmerge v15.0.0 ('Duel with the Devil') 64-bit 2018-08-01 19:47:42 / UTC 2018-07-19T05:22:40Z
    FromStats_BitRate                        : 29674
    FromStats_Duration                       : 01:58:54.168000000
    FromStats_FrameCount                     : 1996
    FromStats_StreamSize                     : 26462499

    Text #2
    ID                                       : 5
    Format                                   : PGS
    Muxing mode                              : zlib
    Codec ID                                 : S_HDMV/PGS
    Codec ID/Info                            : Picture based subtitle format used on BDs/HD-DVDs
    Language                                 : Spanish
    Default                                  : No
    Forced                                   : No
    Statistics Tags Issue                    : mkvmerge v15.0.0 ('Duel with the Devil') 64-bit 2018-08-01 19:47:42 / mkvmerge v15.0.0 ('Duel with the Devil') 64-bit 2018-08-01 19:47:42 / UTC 2018-07-19T05:22:40Z
    FromStats_BitRate                        : 27850
    FromStats_Duration                       : 01:58:31.854000000
    FromStats_FrameCount                     : 2054
    FromStats_StreamSize                     : 24758888

    Text #3
    ID                                       : 6
    Format                                   : PGS
    Muxing mode                              : zlib
    Codec ID                                 : S_HDMV/PGS
    Codec ID/Info                            : Picture based subtitle format used on BDs/HD-DVDs
    Title                                    : Forzados
    Language                                 : Spanish
    Default                                  : Yes
    Forced                                   : Yes
    Statistics Tags Issue                    : mkvmerge v15.0.0 ('Duel with the Devil') 64-bit 2018-08-01 19:47:42 / mkvmerge v15.0.0 ('Duel with the Devil') 64-bit 2018-08-01 19:47:42 / UTC 2018-07-19T05:22:40Z
    FromStats_BitRate                        : 56448
    FromStats_Duration                       : 01:59:07.807000000
    FromStats_FrameCount                     : 4131
    FromStats_StreamSize                     : 50435520

    Menu
    00:00:00.000                             : :Chapter 1
    00:04:34.316                             : :Chapter 2
    00:06:36.646                             : :Chapter 3
    00:09:36.618                             : :Chapter 4
    00:12:36.923                             : :Chapter 5
    00:15:01.401                             : :Chapter 6
    00:20:09.875                             : :Chapter 7
    00:22:10.371                             : :Chapter 8
    00:27:31.233                             : :Chapter 9
    00:30:34.916                             : :Chapter 10
    00:32:23.608                             : :Chapter 11
    00:36:29.521                             : :Chapter 12
    00:39:19.607                             : :Chapter 13
    00:42:09.777                             : :Chapter 14
    00:47:14.290                             : :Chapter 15
    00:50:22.686                             : :Chapter 16
    00:53:23.701                             : :Chapter 17
    00:59:32.069                             : :Chapter 18
    01:03:39.316                             : :Chapter 19
    01:12:01.526                             : :Chapter 20
    01:15:09.714                             : :Chapter 21
    01:16:43.224                             : :Chapter 22
    01:17:53.335                             : :Chapter 23
    01:24:21.598                             : :Chapter 24
    01:26:15.587                             : :Chapter 25
    01:29:08.051                             : :Chapter 26
    01:31:17.222                             : :Chapter 27
    01:34:20.989                             : :Chapter 28
    01:38:35.660                             : :Chapter 29
    01:43:46.178                             : :Chapter 30
    01:48:43.225                             : :Chapter 31
    01:55:22.707                             : :Chapter 32

  • Peso: 8.10 GiB

Sinopsis

El gran magnate de los medios de comunicación Elliot Carver tan sólo precisa hacerse con los derechos de emisión en China para completar su emporio global. Para conseguirlo desarrolla un maquiavélico plan para hacer estallar una guerra entre Gran Bretaña y China, mediante el hundimiento de un buque de guerra inglés. James Bond se embarcará en una misión contrareloj para descubrir quién está detrás del peligroso incidente.

Ficha técnica

Video trailer de la película

Enlaces de descarga

Rip de Bluray

Descargar James Bond Tomorrow Never Dies (1997) Full 1080p Latino




Aportes de DPeliculasHDmega la pass es:dpeliculashdmega.org Aportes de CinemaniaHD la pass es:cinemaniahdd.com

Películas relacionadas

  • La casa con un reloj en sus paredes (2018) 1080p Latino

    2018
    La casa con un reloj en sus paredes (2018) 1080p Latino

    5.0 1h 45m 2018

    Descargar La casa con un reloj en sus paredes (2018) 1080p Latino, Mega, Google Drive, Torrent. La historia...

    Director: Eli Roth

    Género: Familia

    Actores: Vanessa Anne Williams

  • Godzilla (2014) 1080p Latino

    2014
    Godzilla (2014) 1080p Latino

    0.0 2h 3m 2014

    Descargar Godzilla (2014) 1080p Latino, Mega, Google Drive, Torrent. Gareth Edwards dirige este "reboot",...

    Director: Jessica Clothier

    Género: Acción

    Actores: Yuki Morita

  • Godzilla (2014) Full 1080p Latino

    2014
    Godzilla (2014) Full 1080p Latino

    4.2 2h 3m 2014

    Descargar Godzilla (2014) Full 1080p Latino, Mega, Google Drive, Torrent. Gareth Edwards dirige este...

    Director: Jessica Clothier

    Género: Acción

    Actores: Yuki Morita

Comentarios 1
  • ocpgaiden - 02 agosto, 2018

    gracias por la pelicula, saludos